Register · 
Username: Password:
 ·  Forgot password?

(Rock Modern / Progressive Rock) [WEB] Stephan Thelen - Epiphany - 2005, FLAC (tracks), lossless

Reply to topic
DL-List and Torrent activity [Update пиров]
Size:  363 MB   |    Registered:  3 months 27 days   |    Completed:  0 times

Seeder not seen: Never

 
   
 
 
 
Author Message

kadSM ®

Gender:

Longevity: 6 years

Posts: 18159

Post 25-Jun-2019 18:26

[Quote]

Stephan Thelen / Epiphany
Жанр: Rock Modern / Progressive Rock
Носитель: WEB
Год издания: 2005
Издатель (лейбл): Web Release
Страна исполнителя (группы): Switzerland
Аудиокодек: FLAC (*.flac)
Тип рипа: tracks
Продолжительность: 60:18 min
Источник: собственная покупка
Наличие сканов в содержимом раздачи:
Треклист:
1. Wedding Bells. 7:06
2. Polar Station. 5:48
3. Meeting of the Solipsists. 6:01
4. Epiphany. 5:34
5. The Long Hello. 6:16
6. Elliptic Rotations. 6:53
7. Head in the Sky, Feet on the Ground. 5:23
8. Gravity. 8:09
9. Vol de Nuit. 9:05

DRM.log

foobar2000 1.4.2 / Замер динамического диапазона (DR) 1.1.1Дата отчёта: 2019-06-25 13:32:24
--------------------------------------------------------------------------------Анализ: Stephan Thelen / Epiphany--------------------------------------------------------------------------------
DR Пики RMS Продолжительность трека--------------------------------------------------------------------------------DR6 -0.10 дБ -7.76 дБ 7:07 01-Wedding BellsDR6 -0.11 дБ -8.14 дБ 5:48 02-Polar StationDR9 -0.16 дБ -11.41 дБ 6:01 03-Meeting of the SolipsistsDR7 -0.13 дБ -9.04 дБ 5:35 04-EpiphanyDR7 -0.26 дБ -10.15 дБ 6:16 05-The Long HelloDR7 -0.19 дБ -10.36 дБ 6:53 06-Elliptic RotationsDR6 -0.17 дБ -7.94 дБ 5:24 07-Head in the Sky, Feet on the GroundDR7 -0.21 дБ -9.21 дБ 8:10 08-GravityDR8 -0.18 дБ -10.60 дБ 9:05 09-Vol de Nuit--------------------------------------------------------------------------------
Количество треков: 9Реальные значения DR: DR7
Частота: 44100 ГцКаналов: 2Разрядность: 16Битрейт: 801 кбит/сКодек: FLAC================================================================================

Лог проверки качества

-----------------------
DON'T MODIFY THIS FILE
-----------------------
PERFORMER: auCDtect Task Manager, ver. 1.6.0 RC1 build 1.6.0.1Copyright (c) 2008-2010 y-soft. All rights reservedhttp://y-soft.org
ANALYZER: auCDtect: CD records authenticity detector, version 0.8.2Copyright (c) 2004 Oleg Berngardt. All rights reserved.Copyright (c) 2004 Alexander Djourik. All rights reserved.
FILE: 02. Polar Station.flac Size: 37476753 Hash: 77CF3D62BD60CE8CA56D5406264A3245 Accuracy: -m0 Conclusion: CDDA 100% Signature: 98A11D7482AAAEF78D438926C01E8BF43ECC5399FILE: 03. Meeting of the Solipsists.flac Size: 38224164 Hash: 27551A306239561F06B3311250AC2963 Accuracy: -m0 Conclusion: CDDA 100% Signature: 1C4104B8FF6BC5EB3AC9DCE94DD3911DB504B858FILE: 04. Epiphany.flac Size: 29718351 Hash: 34FEA964B15D1366122F2553DDF5C75C Accuracy: -m0 Conclusion: CDDA 100% Signature: D586A572C8ED7B0B7BC8F3D05AB1AD5C9C6B7421FILE: 05. The Long Hello.flac Size: 37030275 Hash: C09DFBEF644D3095805B52B9765B905F Accuracy: -m0 Conclusion: CDDA 100% Signature: 3B8F319F6D2C1B6A2168317C30E8315878118311FILE: 06. Elliptic Rotations.flac Size: 45753521 Hash: 61EBB02F198E5FDB5D73FDD7229C7CA8 Accuracy: -m0 Conclusion: CDDA 100% Signature: DF4922464D36A72B9945A82CF963C9519684651DFILE: 07. Head in the Sky, Feet on the Ground.flac Size: 35527347 Hash: 48FCF2E894FAB4CE01A1F27F7364AD09 Accuracy: -m0 Conclusion: CDDA 100% Signature: 33F077068DFD4ECC8FFCBE6F4EB236B4411AF192FILE: 08. Gravity.flac Size: 56764973 Hash: C36613EDB2337882FA8E1558F2E95A00 Accuracy: -m0 Conclusion: CDDA 100% Signature: E471EDA970A65E83B19011441D2FACEA1F066C33FILE: 09. Vol de Nuit.flac Size: 54641910 Hash: 3434714D19E6A802772674633E245B04 Accuracy: -m0 Conclusion: CDDA 100% Signature: 616BFCF214C02F5C348CBA59926D7257D5A8A6B2FILE: 01. Wedding Bells.flac Size: 45062062 Hash: 2D05255CB0A84EA439FE2BD16E5D013F Accuracy: -m0 Conclusion: CDDA 100% Signature: E7C29C1E4CE1B8A87C38FFE249F22DA9F2A8C55F

Об альбоме (сборнике)

released January 1, 2005

Состав

- Stephan Thelen / guitars, electronica
- Björn Meyer / bass guitar
- Benno Kaiser / drums
[ru-zerkalo.org]_t_5748655
Torrent: Registered ·  [ 2019-06-25 18:26 ] ·  c266baae8daf95b9b10b18b7cde7b6d37d16a0c7

15 KB

Status: checked
Completed: 0 times
Size: 363 MB
Rating: 
(Votes: 0)
Say thanks: 0  Thanks
 
Похожие темы
[Profile] [PM]
Display posts from previous:    
Reply to topic

The time now is: Today 07:32

All times are GMT + 7 Hours



You cannot post new topics in this forum
You cannot reply to topics in this forum
You cannot edit your posts in this forum
You cannot delete your posts in this forum
You cannot vote in polls in this forum
You cannot attach files in this forum
You can download files in this forum