Register · 
Username: Password:
 ·  Forgot password?

Оргия Праведников - Брать живьём (О2ТВ, 15.01.2009) [2009, Progressive Rock, TVRip]

Reply to topic
DL-List and Torrent activity [Update пиров]
Size:  321 MB   |    Registered:  3 months 22 days   |    Completed:  0 times

Seeder not seen: Never

 
   
 
 
 
Author Message

Andrew1225 ®

Gender:

Longevity: 6 years

Posts: 17046

Post 25-Jun-2019 18:26

[Quote]

Оргия Праведников - Брать живьём (О2ТВ, 15.01.2009)
Страна: Россия
Жанр: Progressive Rock
Продолжительность: 00:56:47
Год выпуска: 2009
Описание: Выступление московской группы Оргия Праведников в прямом эфире телеканала О2ТВ 15 января 2009 г. (программа "Брать живьём").
Живой концерт и ответы на вопросы.
Треклист:
1. С.М.С.
2. Офис
3. Хуанхэ. Дождь над великой рекой
4. Сицилийский виноград
5. Наша родина - СССР
6. Последний воин мёртвой земли
7. Дорога ворона
8. Армагеддон FM
Доп. информация:
Сергей Калугин - вокал, акустическая гитара
Юрий Русланов - флейта, клавишные, бэк-вокал
Алексей Бурков - гитара, бэк-вокал
Артемий Бондаренко - бас, бэк-вокал
Александр Ветхов - барабаны
Источник: скачано из сети
Качество: TVRip
Контейнер: AVI
Видео кодек: DivX
Аудио кодек: MP3
Видео: DivX 5 320x224 25fps 600kbps
Аудио: MP3 48000Hz stereo 192kbps

Скриншотычасть 1

часть 2

часть 3

MediaInfoчасть 1

General
Complete name : D:\Video\Music\Оргия Праведников\2009.01.15 О2ТВ\Оргия Праведников - Брать живьём (О2ТВ, 15.01.2009)\op-o2tv_01.avi
Format : DivX
Format/Info : Hack of AVI
File size : 101 MiB
Duration : 18 min 3 s
Overall bit rate : 783 kb/s
FileExtension_Invalid : divx
Video
ID : 0
Format : MPEG-4 Visual
Format settings, BVOP : No
Format settings, QPel : No
Format settings, GMC : No warppoints
Format settings, Matrix : Default (H.263)
Codec ID : DX50
Codec ID/Hint : DivX 5
Duration : 18 min 3 s
Bit rate : 600 kb/s
Width : 320 pixels
Height : 224 pixels
Display aspect ratio : 1.429
Frame rate : 25.000 FPS
Color space : YUV
Chroma subsampling : 4:2:0
Bit depth : 8 bits
Scan type : Progressive
Compression mode : Lossy
Bits/(Pixel*Frame) : 0.335
Stream size : 75.1 MiB (74%)
Title : Video
Writing library : DivX 6.6.1.4
Audio
ID : 1
Format : MPEG Audio
Format version : Version 1
Format profile : Layer 3
Format settings : Joint stereo / MS Stereo
Codec ID : 55
Codec ID/Hint : MP3
Duration : 18 min 3 s
Bit rate mode : Constant
Bit rate : 192 kb/s
Channel(s) : 2 channels
Sampling rate : 48.0 kHz
Compression mode : Lossy
Stream size : 24.8 MiB (25%)
Alignment : Split accross interleaves
Interleave, duration : 40 ms (1.00 video frame)
Interleave, preload duratio : 500 ms
Title : Audio
Writing library : LAME3.96

часть 2

General
Complete name : D:\Video\Music\Оргия Праведников\2009.01.15 О2ТВ\Оргия Праведников - Брать живьём (О2ТВ, 15.01.2009)\op-o2tv_02.avi
Format : DivX
Format/Info : Hack of AVI
File size : 116 MiB
Duration : 20 min 24 s
Overall bit rate : 792 kb/s
FileExtension_Invalid : divx
Video
ID : 0
Format : MPEG-4 Visual
Format settings, BVOP : No
Format settings, QPel : No
Format settings, GMC : No warppoints
Format settings, Matrix : Default (H.263)
Codec ID : DX50
Codec ID/Hint : DivX 5
Duration : 20 min 24 s
Bit rate : 600 kb/s
Width : 320 pixels
Height : 224 pixels
Display aspect ratio : 1.429
Frame rate : 25.000 FPS
Color space : YUV
Chroma subsampling : 4:2:0
Bit depth : 8 bits
Scan type : Progressive
Compression mode : Lossy
Bits/(Pixel*Frame) : 0.335
Stream size : 86.1 MiB (75%)
Title : Video
Writing library : DivX 6.6.1.4
Audio
ID : 1
Format : MPEG Audio
Format version : Version 1
Format profile : Layer 3
Format settings : Joint stereo / MS Stereo
Codec ID : 55
Codec ID/Hint : MP3
Duration : 20 min 24 s
Bit rate mode : Constant
Bit rate : 192 kb/s
Channel(s) : 2 channels
Sampling rate : 48.0 kHz
Compression mode : Lossy
Stream size : 28.0 MiB (24%)
Alignment : Split accross interleaves
Interleave, duration : 40 ms (1.00 video frame)
Interleave, preload duratio : 500 ms
Title : Audio
Writing library : LAME3.96

часть 3

General
Complete name : D:\Video\Music\Оргия Праведников\2009.01.15 О2ТВ\Оргия Праведников - Брать живьём (О2ТВ, 15.01.2009)\op-o2tv_03.avi
Format : DivX
Format/Info : Hack of AVI
File size : 104 MiB
Duration : 18 min 19 s
Overall bit rate : 794 kb/s
FileExtension_Invalid : divx
Video
ID : 0
Format : MPEG-4 Visual
Format settings, BVOP : No
Format settings, QPel : No
Format settings, GMC : No warppoints
Format settings, Matrix : Default (H.263)
Codec ID : DX50
Codec ID/Hint : DivX 5
Duration : 18 min 19 s
Bit rate : 600 kb/s
Width : 320 pixels
Height : 224 pixels
Display aspect ratio : 1.429
Frame rate : 25.000 FPS
Color space : YUV
Chroma subsampling : 4:2:0
Bit depth : 8 bits
Scan type : Progressive
Compression mode : Lossy
Bits/(Pixel*Frame) : 0.335
Stream size : 77.6 MiB (75%)
Title : Video
Writing library : DivX 6.6.1.4
Audio
ID : 1
Format : MPEG Audio
Format version : Version 1
Format profile : Layer 3
Format settings : Joint stereo / MS Stereo
Codec ID : 55
Codec ID/Hint : MP3
Duration : 18 min 19 s
Bit rate mode : Constant
Bit rate : 192 kb/s
Channel(s) : 2 channels
Sampling rate : 48.0 kHz
Compression mode : Lossy
Stream size : 25.2 MiB (24%)
Alignment : Split accross interleaves
Interleave, duration : 40 ms (1.00 video frame)
Interleave, preload duratio : 500 ms
Title : Audio
Writing library : LAME3.96
[ru-zerkalo.org]_t_5746221
Torrent: Registered ·  [ 2019-06-25 18:26 ] ·  2fbe633c68acb14e61de5f9540d87f996634ab14

13 KB

Status: checked
Completed: 0 times
Size: 321 MB
Rating: 
(Votes: 0)
Say thanks: 0  Thanks
 
Похожие темы
[Profile] [PM]
Display posts from previous:    
Reply to topic

The time now is: Today 22:33

All times are GMT + 7 Hours



You cannot post new topics in this forum
You cannot reply to topics in this forum
You cannot edit your posts in this forum
You cannot delete your posts in this forum
You cannot vote in polls in this forum
You cannot attach files in this forum
You can download files in this forum