Register · 
Username: Password:
 ·  Forgot password?

(Industrial, Experimental, Electronic, Rock) [CD] Replikants - This Is Our Message - 1997, FLAC (tracks+.cue), lossless

Reply to topic
DL-List and Torrent activity [Update пиров]
Size:  371 MB   |    Registered:  3 months 27 days   |    Completed:  0 times

Seeder not seen: Never

 
   
 
 
 
Author Message

FragoMan ®

Gender:

Longevity: 6 years

Posts: 24038

Post 25-Jun-2019 22:38

[Quote]

Replikants / This Is Our Message
Жанр: Industrial, Experimental, Electronic, Rock
Носитель: CD
Страна-производитель диска (релиза): USA
Год издания: 1997
Издатель (лейбл): 5 Rue Christine
Номер по каталогу: GER 001
Аудиокодек: FLAC (*.flac)
Тип рипа: tracks+.cue
Продолжительность: 00:53:55
Источник: Получено по обмену
Наличие сканов в содержимом раздачи: да
Треклист:

1. In The Beginning (00:37)
2. You And Your Variables (00:39)
3. Climax Of Wizardry (05:25)
4. They Will Get You (01:57)
5. Agent Oranges (Fancy Mix) (02:10)
6. Grapes Of Math (04:07)
7. Machine (01:04)
8. Black Forest (03:10)
9. Centuries Of Persecution Won't Stop Us (03:37)
10. Homecoming (02:09)
11. Organt Transplant (We Want Miles) (03:44)
12. Patty's Trip (03:58)
13. 8:36 (08:36)
14. This Is God's Universe (02:15)
15. Replikants Rhapsodies (02:24)
16. Desire For Malfunction (02:04)
17. Astroman's Acceptance Of Savior (00:57)
18. Climax Of Idiocy (02:27)
19. For Mankind, Limited Renewal (01:56)
20. I. Humor
21. II. Knowledge
22. III. Stupidity
23. IV. Grace
24. Serendipity (00:39)

Лог создания рипа

Exact Audio Copy V1.3 from 2. September 2016
EAC extraction logfile from 20. April 2019, 23:01
Replikants / This Is Our Message
Used drive : PLEXTOR DVDR PX-716A Adapter: 1 ID: 1
Read mode : SecureUtilize accurate stream : YesDefeat audio cache : YesMake use of C2 pointers : No
Read offset correction : 30Overread into Lead-In and Lead-Out : YesFill up missing offset samples with silence : YesDelete leading and trailing silent blocks : NoNull samples used in CRC calculations : YesUsed interface : Native Win32 interface for Win NT & 2000Gap handling : Appended to previous track
Used output format : User Defined EncoderSelected bitrate : 1024 kBit/sQuality : HighAdd ID3 tag : NoCommand line compressor : C:\Program Files (x86)\Exact Audio Copy\Flac\flac.exeAdditional command line options : -8 -e -p -V -T "ARTIST=%artist%" -T "TITLE=%title%" -T "ALBUM=%albumtitle%" -T "DATE=%year%" -T "TRACKNUMBER=%tracknr%" -T "GENRE=%genre%" -T "PERFORMER=%albuminterpret%" -T "COMPOSER=%composer%" %haslyrics%--tag-from-file=LYRICS="%lyricsfile%"%haslyrics% -T "ALBUMARTIST=%albumartist%" -T "DISCNUMBER=%cdnumber%" -T "TOTALDISCS=%totalcds%" -T "TOTALTRACKS=%numtracks%" -T "COMMENT=%comment%" %source% -o %dest%
TOC of the extracted CD
Track | Start | Length | Start sector | End sector --------------------------------------------------------- 1 | 0:00.00 | 0:37.70 | 0 | 2844 2 | 0:37.70 | 0:38.47 | 2845 | 5741 3 | 1:16.42 | 5:24.35 | 5742 | 30076 4 | 6:41.02 | 1:57.18 | 30077 | 38869 5 | 8:38.20 | 2:10.40 | 38870 | 48659 6 | 10:48.60 | 4:08.07 | 48660 | 67266 7 | 14:56.67 | 1:05.10 | 67267 | 72151 8 | 16:02.02 | 3:14.63 | 72152 | 86764 9 | 19:16.65 | 3:22.30 | 86765 | 101944 10 | 22:39.20 | 2:03.32 | 101945 | 111201 11 | 24:42.52 | 3:44.15 | 111202 | 128016 12 | 28:26.67 | 3:55.50 | 128017 | 145691 13 | 32:22.42 | 8:36.35 | 145692 | 184426 14 | 40:59.02 | 2:14.63 | 184427 | 194539 15 | 43:13.65 | 2:24.72 | 194540 | 205411 16 | 45:38.62 | 2:03.53 | 205412 | 214689 17 | 47:42.40 | 0:57.12 | 214690 | 218976 18 | 48:39.52 | 2:26.63 | 218977 | 229989 19 | 51:06.40 | 1:56.00 | 229990 | 238689 20 | 53:02.40 | 2:45.62 | 238690 | 251126 21 | 55:48.27 | 3:09.43 | 251127 | 265344 22 | 58:57.70 | 3:24.25 | 265345 | 280669 23 | 62:22.20 | 4:10.35 | 280670 | 299454 24 | 66:32.55 | 0:39.52 | 299455 | 302431
Track 1
Filename C:\rips\Replikants - This Is Our Message (1997) [FLAC] {GER 001}\01 - In the Beginning.wav
Pre-gap length 0:00:02.00
Peak level 54.2 % Extraction speed 7.0 X Track quality 100.0 % Test CRC B21A1EDD Copy CRC B21A1EDD Accurately ripped (confidence 2) [C2FC45A7] (AR v1) Copy OK
Track 2
Filename C:\rips\Replikants - This Is Our Message (1997) [FLAC] {GER 001}\02 - You and Your Variables.wav
Peak level 72.2 % Extraction speed 7.1 X Track quality 100.0 % Test CRC 827C32F0 Copy CRC 827C32F0 Accurately ripped (confidence 2) [EF8B2D49] (AR v1) Copy OK
Track 3
Filename C:\rips\Replikants - This Is Our Message (1997) [FLAC] {GER 001}\03 - Climax of Wizardry.wav
Peak level 100.0 % Extraction speed 8.9 X Track quality 100.0 % Test CRC B86622A5 Copy CRC B86622A5 Accurately ripped (confidence 2) [325D6EB5] (AR v1) Copy OK
Track 4
Filename C:\rips\Replikants - This Is Our Message (1997) [FLAC] {GER 001}\04 - They Will Get You.wav
Peak level 79.3 % Extraction speed 8.1 X Track quality 100.0 % Test CRC 5C798EBC Copy CRC 5C798EBC Accurately ripped (confidence 2) [FCF8AC06] (AR v1) Copy OK
Track 5
Filename C:\rips\Replikants - This Is Our Message (1997) [FLAC] {GER 001}\05 - Agent Oranges (Fancy Mix).wav
Peak level 70.2 % Extraction speed 9.9 X Track quality 100.0 % Test CRC 1262ADF4 Copy CRC 1262ADF4 Accurately ripped (confidence 2) [F94433B8] (AR v1) Copy OK
Track 6
Filename C:\rips\Replikants - This Is Our Message (1997) [FLAC] {GER 001}\06 - Grapes of Math.wav
Peak level 98.0 % Extraction speed 9.2 X Track quality 100.0 % Test CRC 75186884 Copy CRC 75186884 Accurately ripped (confidence 2) [BB350947] (AR v1) Copy OK
Track 7
Filename C:\rips\Replikants - This Is Our Message (1997) [FLAC] {GER 001}\07 - Machine.wav
Peak level 56.5 % Extraction speed 8.9 X Track quality 100.0 % Test CRC 81D6A167 Copy CRC 81D6A167 Accurately ripped (confidence 2) [4288ABC9] (AR v1) Copy OK
Track 8
Filename C:\rips\Replikants - This Is Our Message (1997) [FLAC] {GER 001}\08 - Black Forest.wav
Peak level 99.7 % Extraction speed 9.6 X Track quality 99.9 % Test CRC 436540F6 Copy CRC 436540F6 Accurately ripped (confidence 2) [EDD13912] (AR v1) Copy OK
Track 9
Filename C:\rips\Replikants - This Is Our Message (1997) [FLAC] {GER 001}\09 - Centuries of Persecution Won't Stop Us.wav
Pre-gap length 0:00:05.00
Peak level 95.0 % Extraction speed 10.5 X Track quality 100.0 % Test CRC 6720AF06 Copy CRC 6720AF06 Accurately ripped (confidence 2) [3FD0A19A] (AR v1) Copy OK
Track 10
Filename C:\rips\Replikants - This Is Our Message (1997) [FLAC] {GER 001}\10 - Homecoming.wav
Peak level 70.3 % Extraction speed 11.9 X Track quality 100.0 % Test CRC 4E9B987C Copy CRC 4E9B987C Accurately ripped (confidence 2) [22F61808] (AR v1) Copy OK
Track 11
Filename C:\rips\Replikants - This Is Our Message (1997) [FLAC] {GER 001}\11 - Organ Transplant (We Want Miles).wav
Peak level 78.6 % Extraction speed 12.7 X Track quality 100.0 % Test CRC CF27075A Copy CRC CF27075A Accurately ripped (confidence 2) [C1444A95] (AR v1) Copy OK
Track 12
Filename C:\rips\Replikants - This Is Our Message (1997) [FLAC] {GER 001}\12 - Patty's Trip.wav
Peak level 88.7 % Extraction speed 11.7 X Track quality 100.0 % Test CRC 3F569E29 Copy CRC 3F569E29 Accurately ripped (confidence 2) [543A1E41] (AR v1) Copy OK
Track 13
Filename C:\rips\Replikants - This Is Our Message (1997) [FLAC] {GER 001}\13 - 8.36.wav
Peak level 73.6 % Extraction speed 14.4 X Track quality 100.0 % Test CRC A067ACF3 Copy CRC A067ACF3 Accurately ripped (confidence 2) [D17C9F1F] (AR v1) Copy OK
Track 14
Filename C:\rips\Replikants - This Is Our Message (1997) [FLAC] {GER 001}\14 - This Is God's Universe.wav
Peak level 64.0 % Extraction speed 14.3 X Track quality 100.0 % Test CRC EB5F5BB4 Copy CRC EB5F5BB4 Accurately ripped (confidence 2) [0AB02D01] (AR v1) Copy OK
Track 15
Filename C:\rips\Replikants - This Is Our Message (1997) [FLAC] {GER 001}\15 - Replikants Rhapsodies.wav
Peak level 64.7 % Extraction speed 14.6 X Track quality 100.0 % Test CRC 94019B27 Copy CRC 94019B27 Accurately ripped (confidence 2) [E4AF31F4] (AR v1) Copy OK
Track 16
Filename C:\rips\Replikants - This Is Our Message (1997) [FLAC] {GER 001}\16 - Desire for Malfunktion.wav
Peak level 61.9 % Extraction speed 13.3 X Track quality 100.0 % Test CRC CB8948FC Copy CRC CB8948FC Accurately ripped (confidence 2) [D35DD6B0] (AR v1) Copy OK
Track 17
Filename C:\rips\Replikants - This Is Our Message (1997) [FLAC] {GER 001}\17 - Astroman's Acceptance of Savior.wav
Peak level 42.6 % Extraction speed 12.3 X Track quality 100.0 % Test CRC 57647FCD Copy CRC 57647FCD Accurately ripped (confidence 2) [2C1DBFF8] (AR v1) Copy OK
Track 18
Filename C:\rips\Replikants - This Is Our Message (1997) [FLAC] {GER 001}\18 - Climax of Idiocy.wav
Peak level 94.5 % Extraction speed 15.2 X Track quality 100.0 % Test CRC 72B0751B Copy CRC 72B0751B Accurately ripped (confidence 2) [90FB074D] (AR v1) Copy OK
Track 19
Filename C:\rips\Replikants - This Is Our Message (1997) [FLAC] {GER 001}\19 - For Mankind, Limited Renewal.wav
Peak level 97.8 % Extraction speed 14.6 X Track quality 100.0 % Test CRC 462B0A19 Copy CRC 462B0A19 Accurately ripped (confidence 2) [334B13D1] (AR v1) Copy OK
Track 20
Filename C:\rips\Replikants - This Is Our Message (1997) [FLAC] {GER 001}\20 - Nostradamus, Part I- Humor.wav
Peak level 88.3 % Extraction speed 15.7 X Track quality 100.0 % Test CRC 5BE12780 Copy CRC 5BE12780 Accurately ripped (confidence 2) [3E29B947] (AR v1) Copy OK
Track 21
Filename C:\rips\Replikants - This Is Our Message (1997) [FLAC] {GER 001}\21 - Nostradamus, Part II- Knowledge.wav
Peak level 86.9 % Extraction speed 13.1 X Track quality 99.9 % Test CRC EF724C05 Copy CRC EF724C05 Accurately ripped (confidence 2) [6A0637DB] (AR v1) Copy OK
Track 22
Filename C:\rips\Replikants - This Is Our Message (1997) [FLAC] {GER 001}\22 - Nostradamus, Part III- Stupidity.wav
Peak level 87.4 % Extraction speed 16.0 X Track quality 100.0 % Test CRC 9CC68B91 Copy CRC 9CC68B91 Accurately ripped (confidence 2) [CC9353E4] (AR v1) Copy OK
Track 23
Filename C:\rips\Replikants - This Is Our Message (1997) [FLAC] {GER 001}\23 - Nostradamus, Part IV- Grace.wav
Peak level 84.9 % Extraction speed 17.3 X Track quality 100.0 % Test CRC A80B3FAA Copy CRC A80B3FAA Accurately ripped (confidence 2) [04D5C994] (AR v1) Copy OK
Track 24
Filename C:\rips\Replikants - This Is Our Message (1997) [FLAC] {GER 001}\24 - Serendipity.wav
Pre-gap length 0:00:32.00
Peak level 97.8 % Extraction speed 15.5 X Track quality 100.0 % Test CRC 8312B198 Copy CRC 8312B198 Accurately ripped (confidence 2) [49551E57] (AR v1) Copy OK
All tracks accurately ripped
No errors occurred
End of status report
---- CUETools DB Plugin V2.1.6
[CTDB TOCID: Kw60MR9e9YY3v2203nIlJRGzoGk-] foundSubmit result: Kw60MR9e9YY3v2203nIlJRGzoGk- has been confirmedTrack | CTDB Status 1 | (3/3) Accurately ripped 2 | (3/3) Accurately ripped 3 | (3/3) Accurately ripped 4 | (3/3) Accurately ripped 5 | (3/3) Accurately ripped 6 | (3/3) Accurately ripped 7 | (3/3) Accurately ripped 8 | (3/3) Accurately ripped 9 | (3/3) Accurately ripped 10 | (3/3) Accurately ripped 11 | (3/3) Accurately ripped 12 | (3/3) Accurately ripped 13 | (3/3) Accurately ripped 14 | (3/3) Accurately ripped 15 | (3/3) Accurately ripped 16 | (3/3) Accurately ripped 17 | (3/3) Accurately ripped 18 | (3/3) Accurately ripped 19 | (3/3) Accurately ripped 20 | (3/3) Accurately ripped 21 | (3/3) Accurately ripped 22 | (3/3) Accurately ripped 23 | (3/3) Accurately ripped 24 | (3/3) Accurately ripped
==== Log checksum 682F14BA6B9C12C4AA9785AEDD382F6DA3F7C251AFF6F8CE548F2C4AC6078BCD ====

Содержание индексной карты (.CUE)

REM GENRE AlternativeREM DATE 1997REM DISCID 6C0FC018REM COMMENT "ExactAudioCopy v1.3"PERFORMER "Replikants"TITLE "This Is Our Message"REM COMPOSER ""FILE "01 - In the Beginning.wav" WAVE TRACK 01 AUDIO TITLE "In the Beginning" PERFORMER "Replikants" REM COMPOSER "" INDEX 01 00:00:00FILE "02 - You and Your Variables.wav" WAVE TRACK 02 AUDIO TITLE "You and Your Variables" PERFORMER "Replikants" REM COMPOSER "" INDEX 01 00:00:00FILE "03 - Climax of Wizardry.wav" WAVE TRACK 03 AUDIO TITLE "Climax of Wizardry" PERFORMER "Replikants" REM COMPOSER "" INDEX 01 00:00:00FILE "04 - They Will Get You.wav" WAVE TRACK 04 AUDIO TITLE "They Will Get You" PERFORMER "Replikants" REM COMPOSER "" INDEX 01 00:00:00FILE "05 - Agent Oranges (Fancy Mix).wav" WAVE TRACK 05 AUDIO TITLE "Agent Oranges (Fancy Mix)" PERFORMER "Replikants" REM COMPOSER "" INDEX 01 00:00:00FILE "06 - Grapes of Math.wav" WAVE TRACK 06 AUDIO TITLE "Grapes of Math" PERFORMER "Replikants" REM COMPOSER "" INDEX 01 00:00:00FILE "07 - Machine.wav" WAVE TRACK 07 AUDIO TITLE "Machine" PERFORMER "Replikants" REM COMPOSER "" INDEX 01 00:00:00FILE "08 - Black Forest.wav" WAVE TRACK 08 AUDIO TITLE "Black Forest" PERFORMER "Replikants" REM COMPOSER "" INDEX 01 00:00:00 TRACK 09 AUDIO TITLE "Centuries of Persecution Won't Stop Us" PERFORMER "Replikants" REM COMPOSER "" INDEX 00 03:09:63FILE "09 - Centuries of Persecution Won't Stop Us.wav" WAVE INDEX 01 00:00:00FILE "10 - Homecoming.wav" WAVE TRACK 10 AUDIO TITLE "Homecoming" PERFORMER "Replikants" REM COMPOSER "" INDEX 01 00:00:00FILE "11 - Organ Transplant (We Want Miles).wav" WAVE TRACK 11 AUDIO TITLE "Organ Transplant (We Want Miles)" PERFORMER "Replikants" REM COMPOSER "" INDEX 01 00:00:00FILE "12 - Patty's Trip.wav" WAVE TRACK 12 AUDIO TITLE "Patty's Trip" PERFORMER "Replikants" REM COMPOSER "" INDEX 01 00:00:00FILE "13 - 8.36.wav" WAVE TRACK 13 AUDIO TITLE "8.36" PERFORMER "Replikants" REM COMPOSER "" INDEX 01 00:00:00FILE "14 - This Is God's Universe.wav" WAVE TRACK 14 AUDIO TITLE "This Is God's Universe" PERFORMER "Replikants" REM COMPOSER "" INDEX 01 00:00:00FILE "15 - Replikants Rhapsodies.wav" WAVE TRACK 15 AUDIO TITLE "Replikants Rhapsodies" PERFORMER "Replikants" REM COMPOSER "" INDEX 01 00:00:00FILE "16 - Desire for Malfunktion.wav" WAVE TRACK 16 AUDIO TITLE "Desire for Malfunktion" PERFORMER "Replikants" REM COMPOSER "" INDEX 01 00:00:00FILE "17 - Astroman's Acceptance of Savior.wav" WAVE TRACK 17 AUDIO TITLE "Astroman's Acceptance of Savior" PERFORMER "Replikants" REM COMPOSER "" INDEX 01 00:00:00FILE "18 - Climax of Idiocy.wav" WAVE TRACK 18 AUDIO TITLE "Climax of Idiocy" PERFORMER "Replikants" REM COMPOSER "" INDEX 01 00:00:00FILE "19 - For Mankind, Limited Renewal.wav" WAVE TRACK 19 AUDIO TITLE "For Mankind, Limited Renewal" PERFORMER "Replikants" REM COMPOSER "" INDEX 01 00:00:00FILE "20 - Nostradamus, Part I- Humor.wav" WAVE TRACK 20 AUDIO TITLE "Nostradamus, Part I: Humor" PERFORMER "Replikants" REM COMPOSER "" INDEX 01 00:00:00FILE "21 - Nostradamus, Part II- Knowledge.wav" WAVE TRACK 21 AUDIO TITLE "Nostradamus, Part II: Knowledge" PERFORMER "Replikants" REM COMPOSER "" INDEX 01 00:00:00FILE "22 - Nostradamus, Part III- Stupidity.wav" WAVE TRACK 22 AUDIO TITLE "Nostradamus, Part III: Stupidity" PERFORMER "Replikants" REM COMPOSER "" INDEX 01 00:00:00FILE "23 - Nostradamus, Part IV- Grace.wav" WAVE TRACK 23 AUDIO TITLE "Nostradamus, Part IV: Grace" PERFORMER "Replikants" REM COMPOSER "" INDEX 01 00:00:00 TRACK 24 AUDIO TITLE "Serendipity" PERFORMER "Replikants" REM COMPOSER "" INDEX 00 03:38:35FILE "24 - Serendipity.wav" WAVE INDEX 01 00:00:00
[ru-zerkalo.org]_t_5747393
Torrent: Registered ·  [ 2019-06-25 22:35 ] ·  ec704d2e41f979b93f5aee0b2121fe74de5970bf

17 KB

Status: checked
Completed: 0 times
Size: 371 MB
Rating: 
(Votes: 0)
Say thanks: 0  Thanks
 
Похожие темы
[Profile] [PM]
Display posts from previous:    
Reply to topic

The time now is: Today 07:25

All times are GMT + 7 Hours



You cannot post new topics in this forum
You cannot reply to topics in this forum
You cannot edit your posts in this forum
You cannot delete your posts in this forum
You cannot vote in polls in this forum
You cannot attach files in this forum
You can download files in this forum