Register · 
Username: Password:
 ·  Forgot password?

[TR24][OF] Three Trapped Tigers - 2012 - Remix Or Die; 2013 - BeatCast Studio Sessions (Math Rock / Experimental / Electronic Rock)

Reply to topic
DL-List and Torrent activity [Update пиров]
Size:  565 MB   |    Registered:  4 months 19 days   |    Completed:  0 times

Seeder not seen: Never

 
   
 
 
 
Author Message

ANTON1404 ®

Gender:

Longevity: 6 years 1 month

Posts: 18158

Post 26-Jun-2019 02:58

[Quote]

Three Trapped Tigers Формат записи/Источник записи: [TR24][OF]
Наличие водяных знаков: Нет
Годы издания: 2012-2013
Жанр: Math Rock / Experimental / Electronic Rock
Общая продолжительность: 00:59:32
Наличие сканов в содержимом раздачи: Только обложка альбома

2012 - Remix Or Die [16-24bit FLAC] (43:37)

Издатель(лейбл): Three Trapped Tigers
Источник (релизер): bandcamp
01. Cramm [Teej Remix] [3:40]
02. Noise Trade [Nedry Remix] [3:24]
03. Creepies [Gallops Remix] [3:56]
04. Ulnastricter [Evil Ex Remix] [6:11]
05. Ulnastricter [LA2019 Remix] [4:37]
06. Zil [Blak Nite Remix] [4:34]
07. Drebin inspired by Drebin [Juffage Rehaul] [3:54]
08. Magne [Ghosting Season Remix] [5:41]
09. Reset [OLUGBENGA EDIT] [4:45]
10. Reset [Summer Camp Remix] [2:54]
Контейнер: FLAC (*.flac)
Тип рипа: tracks
Разрядность: 24/44.1; 16/44.1
Формат: PCM
Количество каналов: 2.0

Динамический диапазон

foobar2000 1.4.4 / Dynamic Range Meter 1.1.1log date: 2019-06-24 11:33:18
--------------------------------------------------------------------------------Statistics for: 01-Cramm [Teej Remix]Number of samples: 9712627Duration: 3:40--------------------------------------------------------------------------------
Left Right
Peak Value: -0.10 dB --- -0.10 dBAvg RMS: -7.63 dB --- -7.37 dBDR channel: 5.52 dB --- 5.16 dB--------------------------------------------------------------------------------
Official DR Value: DR5
Samplerate: 44100 HzChannels: 2Bits per sample: 24Bitrate: 1785 kbpsCodec: FLAC================================================================================
foobar2000 1.4.4 / Dynamic Range Meter 1.1.1log date: 2019-06-24 11:33:20
--------------------------------------------------------------------------------Statistics for: 02-Noise Trade [Nedry Remix]Number of samples: 8984094Duration: 3:24--------------------------------------------------------------------------------
Left Right
Peak Value: 0.00 dB --- 0.00 dBAvg RMS: -10.88 dB --- -10.38 dBDR channel: 7.49 dB --- 7.20 dB--------------------------------------------------------------------------------
Official DR Value: DR7
Samplerate: 44100 HzChannels: 2Bits per sample: 16Bitrate: 904 kbpsCodec: FLAC================================================================================--------------------------------------------------------------------------------Analyzed: Three Trapped Tigers / Remix Or Die--------------------------------------------------------------------------------
DR Peak RMS Duration Track--------------------------------------------------------------------------------DR8 -0.30 dB -9.42 dB 3:56 03-Creepies [Gallops Remix]DR4 -0.30 dB -5.76 dB 6:11 04-Ulnastricter [Evil Ex Remix]--------------------------------------------------------------------------------
Number of tracks: 2Official DR value: DR6
Samplerate: 44100 HzChannels: 2Bits per sample: 24Bitrate: 1477 kbpsCodec: FLAC================================================================================
--------------------------------------------------------------------------------Statistics for: 05-Ulnastricter [LA2019 Remix]Number of samples: 12231109Duration: 4:37--------------------------------------------------------------------------------
Left Right
Peak Value: -0.84 dB --- -0.84 dBAvg RMS: -7.38 dB --- -7.93 dBDR channel: 5.00 dB --- 5.45 dB--------------------------------------------------------------------------------
Official DR Value: DR5
Samplerate: 44100 HzChannels: 2Bits per sample: 16Bitrate: 994 kbpsCodec: FLAC================================================================================--------------------------------------------------------------------------------Statistics for: 06-Zil [Blak Nite Remix]Number of samples: 12083400Duration: 4:34--------------------------------------------------------------------------------
Left Right
Peak Value: 0.00 dB --- 0.00 dBAvg RMS: -6.94 dB --- -7.44 dBDR channel: 4.77 dB --- 5.18 dB--------------------------------------------------------------------------------
Official DR Value: DR5
Samplerate: 44100 HzChannels: 2Bits per sample: 24Bitrate: 1471 kbpsCodec: FLAC================================================================================--------------------------------------------------------------------------------Analyzed: Three Trapped Tigers / Remix Or Die--------------------------------------------------------------------------------
DR Peak RMS Duration Track--------------------------------------------------------------------------------DR4 0.00 dB -5.74 dB 3:54 07-Drebin inspired by Drebin [Juffage Rehaul]DR7 0.00 dB -9.37 dB 5:41 08-Magne [Ghosting Season Remix]DR5 0.00 dB -6.97 dB 4:45 09-Reset [OLUGBENGA EDIT]DR6 -0.01 dB -6.44 dB 2:54 10-Reset [Summer Camp Remix]--------------------------------------------------------------------------------
Number of tracks: 4Official DR value: DR5
Samplerate: 44100 HzChannels: 2Bits per sample: 16Bitrate: 968 kbpsCodec: FLAC================================================================================

Скриншот спектра частот

2013 - BeatCast Studio Sessions (15:55)

Издатель(лейбл): Three Trapped Tigers
Источник (релизер): bandcamp
01. Cramm [4:54]
02. Noise Trade [5:00]
03. Reset [6:02]
Контейнер: FLAC (*.flac)
Тип рипа: tracks
Разрядность: 24/44.1
Формат: PCM
Количество каналов: 2.0

Динамический диапазон

foobar2000 1.4.4 / Dynamic Range Meter 1.1.1log date: 2019-06-24 11:33:48
--------------------------------------------------------------------------------Analyzed: Three Trapped Tigers / BeatCast Studio Sessions--------------------------------------------------------------------------------
DR Peak RMS Duration Track--------------------------------------------------------------------------------DR6 0.00 dB -7.68 dB 4:54 01-CrammDR8 0.00 dB -9.45 dB 5:00 02-Noise TradeDR7 0.00 dB -9.97 dB 6:02 03-Reset--------------------------------------------------------------------------------
Number of tracks: 3Official DR value: DR7
Samplerate: 44100 HzChannels: 2Bits per sample: 24Bitrate: 1655 kbpsCodec: FLAC================================================================================

Скриншот спектра частот

Внимание! Для получения полной дискографии необходимо скачать также данную раздачу. Обе попадают в одну и ту же папку.
[ru-zerkalo.org]_t_5748331
Torrent: Registered ·  [ 2019-06-26 02:58 ] ·  7ed39e97d48206c74747d281fda5973447dec2e0

46 KB

Status: checked
Completed: 0 times
Size: 565 MB
Rating: 
(Votes: 0)
Say thanks: 0  Thanks
 
Похожие темы
[Profile] [PM]
Display posts from previous:    
Reply to topic

The time now is: Today 14:59

All times are GMT + 7 Hours



You cannot post new topics in this forum
You cannot reply to topics in this forum
You cannot edit your posts in this forum
You cannot delete your posts in this forum
You cannot vote in polls in this forum
You cannot attach files in this forum
You can download files in this forum