Register · 
Username: Password:
 ·  Forgot password?

(Techno, House, Electro) [CD] Felix Da Housecat - Metropolis Present Day \'\'Thee Album\'\' - 1995, FLAC (image+.cue), lossless

Reply to topic
DL-List and Torrent activity [Update пиров]
Size:  426 MB   |    Registered:  3 months 25 days   |    Completed:  0 times

Seeder not seen: Never

 
   
 
 
 
Author Message

ANTON1404 ®

Gender:

Longevity: 6 years

Posts: 17781

Post 27-Jun-2019 17:12

[Quote]

Felix Da Housecat / Metropolis Present Day ''Thee Album''
Жанр: Techno, House, Electro
Носитель: CD
Страна-производитель диска (релиза): Austria
Год издания: 1995
Издатель (лейбл): Radikal Fear
Номер по каталогу: FEAR 011 CD Play It Again Sam Records ‎– 470.0011
Страна исполнителя (группы): U.K.
Аудиокодек: FLAC (*.flac)
Тип рипа: image+.cue
Продолжительность: 01:08:25
Источник: собственный рип
Наличие сканов в содержимом раздачи: да
Треклист:
01. Cycle Spin!
02. Somekinda Special
03. Marine Mood
04. Metropolis
05. B4 Wuz Then
06. Submarine
07. Little Bloo
08. Footsteps of Rage!
09. Trippin on A Trip
10. Ano.Th.A Level
11. Thee Dawn
12. Radikal Thanx 'Listen Up

Лог создания рипа

Exact Audio Copy V1.3 from 2. September 2016
EAC extraction logfile from 18. June 2019, 14:08
Felix Da Housecat / Metropolis Present Day? "Thee Album"
Used drive : HL-DT-STDVDRAM GH24NS90 Adapter: 1 ID: 0
Read mode : SecureUtilize accurate stream : YesDefeat audio cache : YesMake use of C2 pointers : No
Read offset correction : 6Overread into Lead-In and Lead-Out : NoFill up missing offset samples with silence : YesDelete leading and trailing silent blocks : NoNull samples used in CRC calculations : YesUsed interface : Native Win32 interface for Win NT & 2000
Used output format : User Defined EncoderSelected bitrate : 896 kBit/sQuality : HighAdd ID3 tag : YesCommand line compressor : C:\Program Files (x86)\Exact Audio Copy\FLAC\FLAC.EXEAdditional command line options : -T "artist=%artist%" -T "title=%title%" -T "album=%albumtitle%" -T "date=%year%" -T "tracknumber=%tracknr%" -T "genre=%genre%" -5 %source%
TOC of the extracted CD
Track | Start | Length | Start sector | End sector --------------------------------------------------------- 1 | 0:00.32 | 7:12.53 | 32 | 32484 2 | 7:13.10 | 3:27.72 | 32485 | 48081 3 | 10:41.07 | 4:54.45 | 48082 | 70176 4 | 15:35.52 | 9:23.38 | 70177 | 112439 5 | 24:59.15 | 5:54.07 | 112440 | 138996 6 | 30:53.22 | 7:23.30 | 138997 | 172251 7 | 38:16.52 | 5:00.50 | 172252 | 194801 8 | 43:17.27 | 6:36.30 | 194802 | 224531 9 | 49:53.57 | 6:06.23 | 224532 | 252004 10 | 56:00.05 | 5:01.32 | 252005 | 274611 11 | 61:01.37 | 5:18.15 | 274612 | 298476 12 | 66:19.52 | 2:06.05 | 298477 | 307931
Range status and errors
Selected range
Filename A:\RuTracker\Felix Da Housecat - Metropolis Present Day Thee Album! (1995) [FLAC]\Felix Da Housecat - Metropolis Present Day ''Thee Album''.wav
Peak level 99.3 % Extraction speed 1.4 X Range quality 100.0 % Test CRC 35C37299 Copy CRC 35C37299 Copy OK
No errors occurred
AccurateRip summary
Track 1 accurately ripped (confidence 8) [BE9F18B9] (AR v2)Track 2 accurately ripped (confidence 8) [1B012172] (AR v2)Track 3 accurately ripped (confidence 8) [BD1D34D1] (AR v2)Track 4 accurately ripped (confidence 8) [1813ADA8] (AR v2)Track 5 accurately ripped (confidence 8) [2BC1C3E4] (AR v2)Track 6 accurately ripped (confidence 8) [CC66B54A] (AR v2)Track 7 accurately ripped (confidence 8) [6A44B715] (AR v2)Track 8 accurately ripped (confidence 8) [2208F85F] (AR v2)Track 9 accurately ripped (confidence 8) [DE6D7523] (AR v2)Track 10 accurately ripped (confidence 8) [D643D248] (AR v2)Track 11 accurately ripped (confidence 8) [2083971E] (AR v2)Track 12 accurately ripped (confidence 8) [10F4C913] (AR v2)
All tracks accurately ripped
End of status report
---- CUETools DB Plugin V2.1.6
[CTDB TOCID: 9u39Sg_UIkUHdXxE1tPdRz8okmI-] foundSubmit result: already submittedTrack | CTDB Status 1 | (14/14) Accurately ripped 2 | (14/14) Accurately ripped 3 | (14/14) Accurately ripped 4 | (14/14) Accurately ripped 5 | (14/14) Accurately ripped 6 | (14/14) Accurately ripped 7 | (14/14) Accurately ripped 8 | (14/14) Accurately ripped 9 | (14/14) Accurately ripped 10 | (14/14) Accurately ripped 11 | (14/14) Accurately ripped 12 | (14/14) Accurately ripped
==== Log checksum A2D8B0F8D9086885BC3CF82AC31C07F4499E771CF5712ED6F5521A867D8741EE ====

Содержание индексной карты (.CUE)

REM GENRE HouseREM DATE 1995REM DISCID C410090CREM COMMENT "ExactAudioCopy v1.3"CATALOG 0000000000000PERFORMER "Felix Da Housecat"TITLE "Metropolis Present Day? 'Thee Album'"REM COMPOSER "Felix Da Housecat"FILE "Felix Da Housecat - Metropolis Present Day ''Thee Album''.flac" WAVE TRACK 01 AUDIO TITLE "Cycle Spin!" PERFORMER "Felix Da Housecat" REM COMPOSER "Felix Da Housecat" INDEX 00 00:00:00 INDEX 01 00:00:32 TRACK 02 AUDIO TITLE "Somekinda Special" PERFORMER "Felix Da Housecat" REM COMPOSER "Felix Da Housecat" INDEX 01 07:13:10 TRACK 03 AUDIO TITLE "Marine Mood" PERFORMER "Felix Da Housecat" REM COMPOSER "Felix Da Housecat" INDEX 01 10:41:07 TRACK 04 AUDIO TITLE "Metropolis" PERFORMER "Felix Da Housecat" REM COMPOSER "Felix Da Housecat" INDEX 01 15:35:52 TRACK 05 AUDIO TITLE "B4 Wuz Then" PERFORMER "Felix Da Housecat" REM COMPOSER "Felix Da Housecat" INDEX 01 24:59:15 TRACK 06 AUDIO TITLE "Submarine" PERFORMER "Felix Da Housecat" REM COMPOSER "Felix Da Housecat" INDEX 00 30:52:22 INDEX 01 30:53:22 TRACK 07 AUDIO TITLE "Little Bloo" PERFORMER "Felix Da Housecat" REM COMPOSER "Felix Da Housecat" INDEX 01 38:16:52 TRACK 08 AUDIO TITLE "Footsteps Of Rage!" PERFORMER "Felix Da Housecat" REM COMPOSER "Felix Da Housecat" INDEX 01 43:17:27 TRACK 09 AUDIO TITLE "Trippin On A Trip" PERFORMER "Felix Da Housecat" REM COMPOSER "Felix Da Housecat" INDEX 01 49:53:57 TRACK 10 AUDIO TITLE "Ano.Th.A Level" PERFORMER "Felix Da Housecat" REM COMPOSER "Felix Da Housecat" INDEX 01 56:00:05 TRACK 11 AUDIO TITLE "Thee Dawn" PERFORMER "Felix Da Housecat" REM COMPOSER "Felix Da Housecat" INDEX 01 61:01:37 TRACK 12 AUDIO TITLE "Radikal Thanx 'Listen Up'" PERFORMER "Felix Da Housecat" REM COMPOSER "Felix Da Housecat" INDEX 00 66:18:52 INDEX 01 66:19:52
[ru-zerkalo.org]_t_5747472
Torrent: Registered ·  [ 2019-06-27 17:12 ] ·  6e8715eb174f86c3e0a14e67d061449e33815088

34 KB

Status: checked
Completed: 0 times
Size: 426 MB
Rating: 
(Votes: 0)
Say thanks: 0  Thanks
 
Похожие темы
[Profile] [PM]
Display posts from previous:    
Reply to topic

The time now is: Today 07:27

All times are GMT + 7 Hours



You cannot post new topics in this forum
You cannot reply to topics in this forum
You cannot edit your posts in this forum
You cannot delete your posts in this forum
You cannot vote in polls in this forum
You cannot attach files in this forum
You can download files in this forum