Register · 
Username: Password:
 ·  Forgot password?

(Drone, Ambient, Modern Classical, Electroacoustic) [CD] Sarah Davachi - Pale Bloom - 2019, FLAC (tracks+.cue), lossless

Reply to topic
DL-List and Torrent activity [Update пиров]
Size:  189 MB   |    Registered:  3 months 20 days   |    Completed:  0 times

Seeder not seen: Never

 
   
 
 
 
Author Message

manic-manic ®

Gender:

Longevity: 6 years

Posts: 13389

Post 27-Jun-2019 17:12

[Quote]

Sarah Davachi / Pale Bloom
Жанр: Drone, Ambient, Modern Classical, Electroacoustic
Носитель: CD
Страна-производитель диска (релиза): Canada
Год издания: 2019
Издатель (лейбл): W.25TH
Номер по каталогу: W25-10
Аудиокодек: FLAC (*.flac)
Тип рипа: tracks+.cue
Продолжительность: 00:43:14
Источник: Получено по обмену
Наличие сканов в содержимом раздачи: да
Треклист:

1. Perfumes I (08:27)
2. Perfumes II (06:58)
3. Perfumes III (06:04)
4. If It Pleased Me To Appear To You Wrapped In This Drapery (21:45)

Лог создания рипа

Exact Audio Copy V1.3 from 2. September 2016
EAC extraction logfile from 26. June 2019, 15:46
Sarah Davachi / Pale Bloom
Used drive : ATAPI DVD A DH16AASH Adapter: 1 ID: 0
Read mode : SecureUtilize accurate stream : YesDefeat audio cache : YesMake use of C2 pointers : No
Read offset correction : 6Overread into Lead-In and Lead-Out : NoFill up missing offset samples with silence : YesDelete leading and trailing silent blocks : NoNull samples used in CRC calculations : YesUsed interface : Native Win32 interface for Win NT & 2000Gap handling : Appended to previous track
Used output format : User Defined EncoderSelected bitrate : 1024 kBit/sQuality : HighAdd ID3 tag : NoCommand line compressor : C:\Program Files (x86)\Exact Audio Copy\Flac\flac.exeAdditional command line options : -8 -e -V -T "ARTIST=%artist%" -T "TITLE=%title%" -T "ALBUM=%albumtitle%" -T "DATE=%year%" -T "TRACKNUMBER=%tracknr%" -T "GENRE=%genre%" -T "PERFORMER=%albuminterpret%" -T "COMPOSER=%composer%" %haslyrics%--tag-from-file=LYRICS="%lyricsfile%"%haslyrics% -T "ALBUMARTIST=%albumartist%" -T "DISCNUMBER=%cdnumber%" -T "TOTALDISCS=%totalcds%" -T "TOTALTRACKS=%numtracks%" -T "COMMENT=%comment%" %source% -o %dest%
TOC of the extracted CD
Track | Start | Length | Start sector | End sector --------------------------------------------------------- 1 | 0:00.00 | 8:27.18 | 0 | 38042 2 | 8:27.18 | 6:57.69 | 38043 | 69386 3 | 15:25.12 | 6:03.39 | 69387 | 96650 4 | 21:28.51 | 21:44.64 | 96651 | 194514
Track 1
Filename X:\D\Sarah Davachi\2019 Pale Bloom\01 - Perfumes I.wav
Pre-gap length 0:00:02.00
Peak level 97.5 % Extraction speed 3.7 X Track quality 100.0 % Test CRC CA9A8B3A Copy CRC CA9A8B3A Track not present in AccurateRip database Copy OK
Track 2
Filename X:\D\Sarah Davachi\2019 Pale Bloom\02 - Perfumes II.wav
Peak level 85.0 % Extraction speed 4.3 X Track quality 100.0 % Test CRC E2DE9EE3 Copy CRC E2DE9EE3 Track not present in AccurateRip database Copy OK
Track 3
Filename X:\D\Sarah Davachi\2019 Pale Bloom\03 - Perfumes III.wav
Peak level 75.3 % Extraction speed 4.1 X Track quality 99.9 % Test CRC 600394C2 Copy CRC 600394C2 Track not present in AccurateRip database Copy OK
Track 4
Filename X:\D\Sarah Davachi\2019 Pale Bloom\04 - If It Pleased Me To Appear To You Wrapped In This Drapery.wav
Peak level 89.4 % Extraction speed 6.1 X Track quality 100.0 % Test CRC 18027D18 Copy CRC 18027D18 Track not present in AccurateRip database Copy OK
None of the tracks are present in the AccurateRip database
No errors occurred
End of status report
---- CUETools DB Plugin V2.1.6
[CTDB TOCID: mxsu6f0Gs93QFRz0djBSc_Y2.E8-] foundSubmit result: mxsu6f0Gs93QFRz0djBSc_Y2.E8- has been confirmedTrack | CTDB Status 1 | (1/1) Accurately ripped 2 | (1/1) Accurately ripped 3 | (1/1) Accurately ripped 4 | (1/1) Accurately ripped
==== Log checksum 4B0213D921F918C222329C99745452C7C74E1183AC8950EA9D130F094FA9D93C ====

Содержание индексной карты (.CUE)

REM DATE 2019REM DISCID 2E0A2104REM COMMENT "ExactAudioCopy v1.3"PERFORMER "Sarah Davachi"TITLE "Pale Bloom"REM COMPOSER ""FILE "01 - Perfumes I.wav" WAVE TRACK 01 AUDIO TITLE "Perfumes I" PERFORMER "Sarah Davachi" REM COMPOSER "" INDEX 01 00:00:00FILE "02 - Perfumes II.wav" WAVE TRACK 02 AUDIO TITLE "Perfumes II" PERFORMER "Sarah Davachi" REM COMPOSER "" INDEX 01 00:00:00FILE "03 - Perfumes III.wav" WAVE TRACK 03 AUDIO TITLE "Perfumes III" PERFORMER "Sarah Davachi" REM COMPOSER "" INDEX 01 00:00:00FILE "04 - If It Pleased Me To Appear To You Wrapped In This Drapery.wav" WAVE TRACK 04 AUDIO TITLE "If It Pleased Me To Appear To You Wrapped In This Drapery" PERFORMER "Sarah Davachi" REM COMPOSER "" INDEX 01 00:00:00
[ru-zerkalo.org]_t_5749353
Torrent: Registered ·  [ 2019-06-27 17:12 ] ·  14d219a47e7422eecbcd573971b65fb212d4693b

16 KB

Status: checked
Completed: 0 times
Size: 189 MB
Rating: 
(Votes: 0)
Say thanks: 0  Thanks
 
Похожие темы
[Profile] [PM]
Display posts from previous:    
Reply to topic

The time now is: Today 22:28

All times are GMT + 7 Hours



You cannot post new topics in this forum
You cannot reply to topics in this forum
You cannot edit your posts in this forum
You cannot delete your posts in this forum
You cannot vote in polls in this forum
You cannot attach files in this forum
You can download files in this forum