Register · 
Username: Password:
 ·  Forgot password?

Шафт / Shaft (Гордон Паркс / Gordon Parks) [1971, США, боевик, криминал, HDRip] MVO (5 канал) + Original Eng + Sub (Eng)

Reply to topic
DL-List and Torrent activity [Update пиров]
Size:  1.46 GB   |    Registered:  7 months 14 days   |    Completed:  0 times

Seeder not seen: Never

 
   
 
 
 
Author Message

Andrew1225 ®

Gender:

Longevity: 6 years 4 months

Posts: 17668

Post 02-Jul-2019 15:49

[Quote]

Шафт / Shaft
Страна: США
Жанр: боевик, криминал
Год выпуска: 1971
Продолжительность: 01:40:17
Перевод: Профессиональный (многоголосый закадровый) 5 канал
Субтитры: Английские (srt)
Оригинальная аудиодорожка: Английский
Режиссер: Гордон Паркс / Gordon Parks
В ролях: Ричард Раундтри, Моузес Ганн, Чарльз Чоффи, Кристофер Джон, Гвенн Митчелл, Лоуренс Прессман, Виктор Арнольд, Шерри Брюэр, Рекс Роббинс
Описание: Чернокожий частный детектив Шафт славится тем, что лучше других умеет работать на улицах Нью-Йорка. Сначала он борется с королем Гарлема, чернокожим гангстером Бампи, но вскоре вынужден объединить с ним усилия: люди «белой» мафий похищают юную дочь Бампи…

Сэмпл: http://multi-up.com/1235751
Качество видео: HDRip ( BDRip 720p)
Формат видео: AVI
Видео: XviD 73, 720x400, (16:9), 23,976 fps, 1600 Кбит/с, 8 бит, 0.24 bit/pixel
Аудио: Русский (АС3, 2 ch (Front: L R), 48,0 KHz, 192 Kbps) 5 канал
Аудио 2: Английский (АС3, 2 ch (Front: L R), 48,0 KHz, 192 Kbps) Оригинал

MediaInfo

ОбщееПолное имя : D:\Фильмы на трекер\Шафт_(боевик, триллер, криминал 1971 год)_Leonard Lew\Шафт_(боевик, триллер, криминал 1971 год)_Leonard Lew.aviФормат : AVIФормат/Информация : Audio Video InterleaveРазмер файла : 1,46 ГбайтПродолжительность : 1 ч. 40 м.Общий поток : 2090 Кбит/секПрограмма кодирования : VirtualDubMod 1.5.10.3 | www.virtualdub-fr.org || (build 2550/release)Библиотека кодирования : VirtualDubMod build 2550/release
ВидеоИдентификатор : 0Формат : MPEG-4 VisualПрофиль формата : Advanced Simple@L5Параметр BVOP формата : 2Параметр QPel формата : НетПараметр GMC формата : Без точки переходаПараметр матрицы формата : ВыборочнаяИдентификатор кодека : XVIDИдентификатор кодека/Подсказка : XviDПродолжительность : 1 ч. 40 м.Битрейт : 1660 Кбит/секШирина : 720 пикселейВысота : 400 пикселейСоотношение сторон : 16:9Частота кадров : 23,976 (23976/1000) кадра/секЦветовое пространство : YUVСубдискретизация насыщенности : 4:2:0Битовая глубина : 8 битТип развёртки : ПрогрессивнаяМетод сжатия : С потерямиБит/(Пиксели*Кадры) : 0.240Размер потока : 1,16 Гбайт (79%)Библиотека кодирования : XviD 73
Аудио #1Идентификатор : 1Формат : AC-3Формат/Информация : Audio Coding 3Расширение режима : CM (complete main)Параметр Endianness формата : BigИдентификатор кодека : 2000Продолжительность : 1 ч. 40 м.Вид битрейта : ПостоянныйБитрейт : 224 Кбит/секКаналы : 2 каналаРасположение каналов : Front: L RЧастота : 48,0 КГцЧастота кадров : 31,250 кадров/сек (1536 spf)Метод сжатия : С потерямиРазмер потока : 161 Мбайт (11%)Выравнивание : Разделение по промежуткамПродолжительность промежутка : 42 мс. (1,00 видеокадр)Время предзагрузки промежутка : 500 мс.
Аудио #2Идентификатор : 2Формат : AC-3Формат/Информация : Audio Coding 3Расширение режима : CM (complete main)Параметр Endianness формата : BigИдентификатор кодека : 2000Продолжительность : 1 ч. 40 м.Вид битрейта : ПостоянныйБитрейт : 192 Кбит/секКаналы : 1 каналРасположение каналов : Front: CЧастота : 48,0 КГцЧастота кадров : 31,250 кадров/сек (1536 spf)Метод сжатия : С потерямиРазмер потока : 138 Мбайт (9%)Выравнивание : Разделение по промежуткамПродолжительность промежутка : 42 мс. (1,00 видеокадр)Время предзагрузки промежутка : 500 мс.

Скриншот c названием фильма

Скриншоты

http:///forum/viewtopic.php?t=1018646



[ru-zerkalo.org]_t_5750412
Torrent: Registered ·  [ 2019-07-02 15:49 ] ·  6b3a8599b61cf3dcb2aeaa5c5540a9f4402a39aa

15 KB

Status: checked
Completed: 0 times
Size: 1.46 GB
Rating: 
(Votes: 0)
Say thanks: 0  Thanks
 
Похожие темы
[Profile] [PM]
Display posts from previous:    
Reply to topic

The time now is: Today 15:03

All times are GMT + 7 Hours



You cannot post new topics in this forum
You cannot reply to topics in this forum
You cannot edit your posts in this forum
You cannot delete your posts in this forum
You cannot vote in polls in this forum
You cannot attach files in this forum
You can download files in this forum