Register · 
Username: Password:
 ·  Forgot password?

(Experimental Rock, Sequencer & MIDI) [WEB] Housewives - Twilight Splendour [l. Blank Editions] - 2019, FLAC (tracks), lossless

Reply to topic
DL-List and Torrent activity [Update пиров]
Size:  201 MB   |    Registered:  4 months 8 days   |    Completed:  0 times

Seeder not seen: Never

 
   
 
 
 
Author Message

Shadow123 ®

Gender:

Longevity: 6 years 1 month

Posts: 14768

Post 12-Jul-2019 02:17

[Quote]

Housewives"Twilight Splendour"2019
Страна группы [formed] • 2013 | UK (London, Greater London)

.

Жанры • Experimental Rock | Sequencer & MIDI | Post-Punk
Лэйбл • Blank Editions (USA) ⚫ № по каталогу • BETBC 016
Носитель • WEB ⚫ Тип рипа • tracks ⚫ Кодек • FLAC (*.flac)
Источник альбома • redacted.ch [bandcamp.com]
.
Track Listing [00:36:58]
01. Beneath the Glass .(04:28)
02. Speak to Me .(03:49)
03. Dormi .(07:45)
04. SmttnKttns .(04:46)
05. Texu .(04:12)
06. Sublimate pt. I .(02:49)
07. Sublimate pt. II .(04:14)
08. Hexidecimal Wave / Binary Rock .(04:57)

.
released March 22, 2019

+ / -к а ч е с т в о

-----------------------
DON'T MODIFY THIS FILE
-----------------------
PERFORMER: auCDtect Task Manager, ver. 1.6.0 RC1 build 1.6.0.1Copyright (c) 2008-2010 y-soft. All rights reserved
ANALYZER: auCDtect: CD records authenticity detector, version 0.8.2Copyright (c) 2004 Oleg Berngardt. All rights reserved.Copyright (c) 2004 Alexander Djourik. All rights reserved.
FILE: 08. Hexidecimal Wave. Binary Rock.flac Size: 23725268 Hash: DAD5D037BF4356BE33FF22D8DBFB8C41 Accuracy: -m0 Conclusion: CDDA 76% Signature: 5113A5F031AFC12544F15D0A05ABD4015ED77801FILE: 07. Sublimate pt. II.flac Size: 28460881 Hash: EE19B96101F4B7FB72C54D3558CD2C15 Accuracy: -m0 Conclusion: CDDA 100% Signature: 8EC8A181C592D9BB1694D51E63F5603042AE0FE4FILE: 06. Sublimate pt. I.flac Size: 17511582 Hash: 004C336F026914B93F184F5145FB8688 Accuracy: -m0 Conclusion: CDDA 100% Signature: 23A9EFF00F3B1A304AB3DCC06B63462AED84616DFILE: 05. Texu.flac Size: 25400267 Hash: 4D244AF427F1819E8E345579CA3E2F5F Accuracy: -m0 Conclusion: CDDA 100% Signature: 56E27DBC5D8EC309C390BE3BBB604DEEFFA68FABFILE: 04. SmttnKttns.flac Size: 28425850 Hash: 3A832086774521976F44B9C1F79F7025 Accuracy: -m0 Conclusion: CDDA 100% Signature: 507A5B2EC0DB347AC6EB220FEB0FD0EB5AF94DCBFILE: 03. Dormi.flac Size: 38364782 Hash: D0343C75C917456025D5EFB26177B3B3 Accuracy: -m0 Conclusion: CDDA 100% Signature: 6FED4A465A316A18B74F44AF5646A65BEF82FB5CFILE: 02. Speak to Me.flac Size: 24047409 Hash: 1C1A8C4C966312F39B2EF4E8999EC43D Accuracy: -m0 Conclusion: CDDA 99% Signature: 8261684221B3C306FD0EF1C1D0E610094BF51995FILE: 01. Beneath the Glass.flac Size: 24570781 Hash: 7EBCE9734F1CCDBE491AB4B19A089CF8 Accuracy: -m0 Conclusion: CDDA 100% Signature: EAFE6ECFCC867B9CC2DD809A5E41761619E2CA1A

д д

foobar2000 1.3.9 / Dynamic Range Meter 1.1.1log date: 2019-07-09 10:27:17
--------------------------------------------------------------------------------Analyzed: Housewives / Twilight Splendour--------------------------------------------------------------------------------
DR Peak RMS Duration Track--------------------------------------------------------------------------------DR7 -0.06 dB -10.05 dB 4:27 01-Beneath the GlassDR6 -0.08 dB -8.00 dB 3:48 02-Speak to MeDR6 -0.03 dB -7.95 dB 7:45 03-DormiDR7 -0.10 dB -9.03 dB 4:45 04-SmttnKttnsDR3 0.00 dB -4.96 dB 4:12 05-TexuDR5 -0.06 dB -7.20 dB 2:49 06-Sublimate pt. IDR4 -0.10 dB -5.10 dB 4:14 07-Sublimate pt. IIDR10 -0.10 dB -12.65 dB 4:57 08-Hexidecimal Wave / Binary Rock--------------------------------------------------------------------------------
Number of tracks: 8Official DR value: DR6
Samplerate: 44100 HzChannels: 2Bits per sample: 16Bitrate: 637 kbpsCodec: FLAC================================================================================

с п е к т р ы

[ru-zerkalo.org]_t_5753826
Torrent: Registered ·  [ 2019-07-12 02:17 ] ·  b9aaeec43eb2e4676bd32c70ee5055ddf7743a80

17 KB

Status: checked
Completed: 0 times
Size: 201 MB
Rating: 
(Votes: 0)
Say thanks: 0  Thanks
 
Похожие темы
[Profile] [PM]
Display posts from previous:    
Reply to topic

The time now is: Today 19:08

All times are GMT + 7 Hours



You cannot post new topics in this forum
You cannot reply to topics in this forum
You cannot edit your posts in this forum
You cannot delete your posts in this forum
You cannot vote in polls in this forum
You cannot attach files in this forum
You can download files in this forum