Register · 
Username: Password:
 ·  Forgot password?

(Southern Stoner Metal) [CD] Texas Hippie Coalition - High In The Saddle - 2019, FLAC (image+.cue), lossless

Reply to topic
DL-List and Torrent activity [Update пиров]
Size:  380 MB   |    Registered:  4 months 8 days   |    Completed:  0 times

Seeder not seen: Never

 
   
 
 
 
Author Message

Nestor_13 ®

Gender:

Longevity: 6 years 1 month

Posts: 21099

Post 12-Jul-2019 05:24

[Quote]

Texas Hippie Coalition / High In The Saddle
Жанр: Southern Stoner Metal
Носитель: CD
Страна-производитель диска (релиза): Russia
Год издания: 2019
Издатель (лейбл): Monsters Of Rock
Страна исполнителя (группы): USA
Аудиокодек: FLAC (*.flac)
Тип рипа: image+.cue
Продолжительность: 39'18''
Источник: собственный рип BluesHouse aka RedHotBlues
Наличие сканов в содержимом раздачи: да
Треклист:
01. Moonshine [0:04:43.12]
02. Dirty Finger [0:04:21.36]
03. Bring It Baby [0:03:29.16]
04. Ride Or Die [0:03:39.34]
05. Tongue Like A Devil [0:03:30.33]
06. Why Aren't You Listening [0:03:50.64]
07. Stevie Nicks [0:04:26.18]
08. Bullseye [0:04:17.73]
09. Tell It From The Ground [0:03:41.71]
10. Blue Lights On [0:03:15.36]

Лог создания рипа

Exact Audio Copy V1.3 from 2. September 2016
Отчёт EAC об извлечении, выполненном 10. июля 2019, 23:44
Texas Hippie Coalition / High In The Saddle
Дисковод: ASUS DRW-22B3S Adapter: 1 ID: 3
Режим чтения : ДостоверностьИспользование точного потока : ДаОтключение кэша аудио : ДаИспользование указателей C2 : Нет
Коррекция смещения при чтении : 6Способность читать области Lead-in и Lead-out : НетЗаполнение пропущенных сэмплов тишиной : ДаУдаление блоков с тишиной в начале и конце : НетПри вычислениях CRC использовались нулевые сэмплы : ДаИнтерфейс : Встроенный Win32-интерфейс для Win NT/2000
Выходной формат : Пользовательский кодировщикВыбранный битрейт : 768 kBit/sКачество : ВысокийДобавление ID3-тега : НетУтилита сжатия : C:\Program Files\Exact Audio Copy\FLAC\FLAC.EXEДополнительные параметры : -6 -V -T "ARTIST=%artist%" -T "TITLE=%title%" -T "ALBUM=%albumtitle%" -T "DATE=%year%" -T "TRACKNUMBER=%tracknr%" -T "GENRE=%genre%" -T "COMMENT=%comment%" -T "BAND=%albuminterpret%" -T "ALBUMARTIST=%albuminterpret%" -T "COMPOSER=%composer%" %haslyrics%--tag-from-file=LYRICS="%lyricsfile%"%haslyrics% -T "DISCNUMBER=%cdnumber%" -T "TOTALDISCS=%totalcds%" -T "TOTALTRACKS=%numtracks%" %hascover%--picture="%coverfile%"%hascover% %source% -o %dest%
TOC извлечённого CD
Трек | Старт | Длительность | Начальный сектор | Конечный сектор --------------------------------------------------------------------- 1 | 0:00.00 | 4:43.12 | 0 | 21236 2 | 4:43.12 | 4:21.36 | 21237 | 40847 3 | 9:04.48 | 3:29.16 | 40848 | 56538 4 | 12:33.64 | 3:39.34 | 56539 | 72997 5 | 16:13.23 | 3:30.33 | 72998 | 88780 6 | 19:43.56 | 3:50.64 | 88781 | 106094 7 | 23:34.45 | 4:26.18 | 106095 | 126062 8 | 28:00.63 | 4:17.73 | 126063 | 145410 9 | 32:18.61 | 3:41.71 | 145411 | 162056 10 | 36:00.57 | 3:15.36 | 162057 | 176717
Характеристики диапазона извлечения и сообщения об ошибках
Выбранный диапазон
Имя файла C:\Users\Titanium\Desktop\Texas Hippie Coalition - High In The Saddle - 2019 39'18''\Texas Hippie Coalition - High In The Saddle.wav
Пиковый уровень 100.0 % Скорость извлечения 3.0 X Качество диапазона 99.9 % CRC теста 929546E9 CRC копии 929546E9 Копирование... OK
Ошибок не произошло
Конец отчёта
---- CUETools DB Plugin V2.1.6
[CTDB TOCID: zSolXO8t8jcp5orDeZFklK_fKFk-] foundSubmit result: already submittedTrack | CTDB Status 1 | (9/9) Accurately ripped 2 | (9/9) Accurately ripped 3 | (9/9) Accurately ripped 4 | (9/9) Accurately ripped 5 | (9/9) Accurately ripped 6 | (9/9) Accurately ripped 7 | (9/9) Accurately ripped 8 | (9/9) Accurately ripped 9 | (9/9) Accurately ripped 10 | (9/9) Accurately ripped
==== Контрольная сумма отчёта 8D12A07BCDB0CB0A29A572E691CE38F73925DE48008609273ADD722793E0819C ====

Содержание индексной карты (.CUE)

REM GENRE "Southern Rock"REM DATE 2019REM DISCID 8B09340AREM COMMENT "ExactAudioCopy v1.3"PERFORMER "Texas Hippie Coalition"TITLE "High In The Saddle"REM COMPOSER ""FILE "Texas Hippie Coalition - High In The Saddle.flac" WAVE TRACK 01 AUDIO TITLE "Moonshine" PERFORMER "Texas Hippie Coalition" REM COMPOSER "" INDEX 01 00:00:00 TRACK 02 AUDIO TITLE "Dirty Finger" PERFORMER "Texas Hippie Coalition" REM COMPOSER "" INDEX 01 04:43:12 TRACK 03 AUDIO TITLE "Bring It Baby" PERFORMER "Texas Hippie Coalition" REM COMPOSER "" INDEX 01 09:04:48 TRACK 04 AUDIO TITLE "Ride Or Die" PERFORMER "Texas Hippie Coalition" REM COMPOSER "" INDEX 01 12:33:64 TRACK 05 AUDIO TITLE "Tongue Like A Devil" PERFORMER "Texas Hippie Coalition" REM COMPOSER "" INDEX 01 16:13:23 TRACK 06 AUDIO TITLE "Why Aren't You Listening" PERFORMER "Texas Hippie Coalition" REM COMPOSER "" INDEX 01 19:43:56 TRACK 07 AUDIO TITLE "Stevie Nicks" PERFORMER "Texas Hippie Coalition" REM COMPOSER "" INDEX 01 23:34:45 TRACK 08 AUDIO TITLE "Bullseye" PERFORMER "Texas Hippie Coalition" REM COMPOSER "" INDEX 01 28:00:63 TRACK 09 AUDIO TITLE "Tell It From The Ground" PERFORMER "Texas Hippie Coalition" REM COMPOSER "" INDEX 01 32:18:61 TRACK 10 AUDIO TITLE "Blue Lights On" PERFORMER "Texas Hippie Coalition" REM COMPOSER "" INDEX 01 36:00:57

Лог проверки качества

-----------------------
DON'T MODIFY THIS FILE
-----------------------
PERFORMER: auCDtect Task Manager, ver. 1.6.0 RC1 build 1.6.0.1Copyright (c) 2008-2010 y-soft. All rights reservedhttp://y-soft.org
ANALYZER: auCDtect: CD records authenticity detector, version 0.8.2Copyright (c) 2004 Oleg Berngardt. All rights reserved.Copyright (c) 2004 Alexander Djourik. All rights reserved.
FILE: Texas Hippie Coalition - High In The Saddle.flac Size: 279974573 Hash: 524A1507C66BB28DD046102A410B2082 Accuracy: -m0 Conclusion: CDDA 100% Signature: F562B8FD2686887C362E808F418298513787322D
Доп. информацияКак всегда - мощь-драйв-кайф! Может мне показалось, но в этом альбоме у хипарей появилось больше блюзовых интонаций, чем в прошлых - ну, да ... с годами хочется побольше о Жизни поговорить )) тогда не будет неожиданностью, если их следующий альбом в жанрах обозначат ... типа Southern Blues Metal!
[ru-zerkalo.org]_t_5754389
Torrent: Registered ·  [ 2019-07-12 05:24 ] ·  b974fbe28522f96aba5db160d01eb2b6a27615a0

16 KB

Status: checked
Completed: 0 times
Size: 380 MB
Rating: 
(Votes: 0)
Say thanks: 0  Thanks
 
Похожие темы
[Profile] [PM]
Display posts from previous:    
Reply to topic

The time now is: Today 19:08

All times are GMT + 7 Hours



You cannot post new topics in this forum
You cannot reply to topics in this forum
You cannot edit your posts in this forum
You cannot delete your posts in this forum
You cannot vote in polls in this forum
You cannot attach files in this forum
You can download files in this forum