Register · 
Username: Password:
 ·  Forgot password?

Гангстер, коп и дьявол / В погоне за дьяволом / История злодея / The Gangster, the Cop, the Devil / Villain Story / Akinjeon (Ли Вон-тхэ / Lee Won-tae) [2019, Южная Корея, боевик, криминал, триллер, WEB-DLRip] + Sub Rus + Original Kor

Reply to topic
DL-List and Torrent activity [Update пиров]
Size:  1.48 GB   |    Registered:  6 months 11 days   |    Completed:  1 time

Seeder not seen: 6 months 1 day

 
   
 
 
 
Author Message

god56 ®

Gender:

Longevity: 6 years 4 months

Posts: 26147

Post 16-Jul-2019 00:55

[Quote]

Гангстер, коп и дьявол / В погоне за дьяволом / История злодея
The Gangster, the Cop, the Devil / Villain Story
Akinjeon
"Don't let the devil win -
Не дай дьяволу победить!"
Страна: Южная Корея
Жанр: боевик, криминал, триллер
Год выпуска: 2019
Продолжительность: 01:49:53
Субтитры: русские - hardsub
Оригинальная аудиодорожка: korean
и перевод фансаб-группы:
ЗИППЕР ⚡
Режиссер: Ли Вон-тхэ / Lee Won-tae
В ролях:
Ма Дон-сок / Ma Dong-seok
Ким Му-ёль / Kim Moo-yeol
Ким Сон-гю / Kim Seong-gyoo
Ю Сын-мок / Yoo Seung-mok
Чхве Мин-чхоль / Choi Min-cheol
Ким Юн-сон / Kim Yoon-seong
Описание:
Фильм основан на реальных событиях. Был представлен на Каннском кинофестивале.
Маньяк нападает на самого крутого мафиози в городе...Желая поднять со дна свою «утопленную» репутацию и лично отомстить за покушение на его жизнь, криминальный авторитет собирается отомстить нападавшему психопату.
В это время самый крутой полицейский города пытается найти маньяка, убивающего людей без разбора...
Как разойдётся такая сладкая троица, когда правосудие спит... Человеческая мораль становится выше закона и здесь приходится сделать выбор... А вот какой выбор сделают герои остаётся втайне до самого финала...
На фоне бесконечного экшена с погонями, перестрелками и мордобитеиЁм...двое плохих ловят ещё более плохого
Доп. информация:ВНИМАНИЕ!!!
ПРИСУТСТВИЕ НЕНОРМАТИВНОЙ ЛЕКСИКИ!!!


Сэмпл: http://sendfile.su/1505967
Качество видео: WEB-DLRip
Формат видео: AVI
Видео: XviD, 720x304, 23,976 fps, 0.329 бит, 1725 Кбит/сек
Аудио: AC-3, 48,0 КГц, 192 Кбит/сек, 2 ch

MediaInfo

ОбщееПолное имя : D:\Гангстер, коп и дьявол\Гангстер, коп и дьявол.aviФормат : AVIФормат/Информация : Audio Video InterleaveРазмер файла : 1,48 ГбайтПродолжительность : 1 ч. 49 м.Общий поток : 1926 Кбит/секПрограмма кодирования : VirtualDubMod 1.5.10.3 | www.virtualdub-fr.org || (build 2550/release)Библиотека кодирования : VirtualDubMod build 2550/release
ВидеоИдентификатор : 0Формат : MPEG-4 VisualПрофиль формата : Advanced Simple@L5Параметр BVOP формата : 2Параметр QPel формата : НетПараметр GMC формата : Без точки переходаПараметр матрицы формата : Default (H.263)Режим смешивания : Сжатый битовый потокИдентификатор кодека : XVIDИдентификатор кодека/Подсказка : XviDПродолжительность : 1 ч. 49 м.Битрейт : 1725 Кбит/секШирина : 720 пикселейВысота : 304 пикселяСоотношение сторон : 2,35:1Частота кадров : 23,976 (23976/1000) кадра/секЦветовое пространство : YUVСубдискретизация насыщенности : 4:2:0Битовая глубина : 8 битТип развёртки : ПрогрессивнаяМетод сжатия : С потерямиБит/(Пиксели*Кадры) : 0.329Размер потока : 1,32 Гбайт (90%)Библиотека кодирования : XviD 1.2.1 (UTC 2008-12-04)
АудиоИдентификатор : 1Формат : AC-3Формат/Информация : Audio Coding 3Расширение режима : CM (complete main)Параметр Endianness формата : BigИдентификатор кодека : 2000Продолжительность : 1 ч. 49 м.Вид битрейта : ПостоянныйБитрейт : 192 Кбит/секКаналы : 2 каналаРасположение каналов : Front: L RЧастота : 48,0 КГцЧастота кадров : 31,250 кадров/сек (1536 spf)Метод сжатия : С потерямиРазмер потока : 151 Мбайт (10%)Выравнивание : Разделение по промежуткамПродолжительность промежутка : 42 мс. (1,00 видеокадр)Время предзагрузки промежутка : 500 мс.

Скриншот c названием фильма


[ru-zerkalo.org]_t_5755459
Torrent: Registered ·  [ 2019-07-16 00:55 ] ·  414e40e9fe9196a37d8809a27e51da92d0789399

15 KB

Status: checked
Completed: 1 times
Size: 1.48 GB
Rating: 
(Votes: 0)
Say thanks: 0  Thanks
 
Похожие темы
[Profile] [PM]
Display posts from previous:    
Reply to topic

The time now is: Today 05:13

All times are GMT + 7 Hours



You cannot post new topics in this forum
You cannot reply to topics in this forum
You cannot edit your posts in this forum
You cannot delete your posts in this forum
You cannot vote in polls in this forum
You cannot attach files in this forum
You can download files in this forum