Register · 
Username: Password:
 ·  Forgot password?

Вилли Розье создал Каллагана / 1954, la Riviera: et Willy Rozier crea Callaghan (Соня Медина / Sonia Medina) [2016, Франция, документальный, кинематограф, DVB]

Reply to topic
DL-List and Torrent activity [Update пиров]
Size:  1.05 GB   |    Registered:  6 months 15 days   |    Completed:  0 times

Seeder not seen: Never

 
   
 
 
 
Author Message

Andrew1225 ®

Gender:

Longevity: 6 years 4 months

Posts: 17668

Post 05-Aug-2019 23:49

[Quote]

Вилли Розье создал Каллагана
1954, la Riviera: et Willy Rozier créa Callaghan- Год выпуска: 2016
Страна: Франция
Жанр: документальный, кинематограф
Продолжительность: 00:44:53
Перевод: Субтитры (русский перевод компании Hiventy)
Русские субтитры: естьФормат субтитров: prerendered (IDX+SUB), softsub (SRT)
Доп. информация о субтитрах: русские, английские, французские, немецкие, нидерландские, румынские, испанские - (IDX+SUB); английские, французские - (SRT)
Оригинальная аудиодорожка: французский
Режиссер: Соня Медина / Sonia Medina
Канал: TV5MONDE Europe
Описание: До Джеймса Бонда был Слим Каллаган. Популярный французский режиссер послевоенного времени Вилли Розье любил рассказывать истории о мужчинах и снимать женщин, драки, любовь, Средиземное море. В его фильме [url=tracker.php?nm=Manina+la+fille+sans+voiles]"Манина, девушка в бикини"[/url] (1952) свою первую главную роль сыграла Брижит Бардо. Между 1954 и 1961 годами он снял четыре фильма с персонажем Слимом Каллаганом. Вернёмся к этому необычному английскому детективу, вдохновленному романами британца Питера Чейни / Peter Cheyney.
Доп. информация: Hot Bird (13.0°E) DVB-S

качество: DVB
формат: MKV
Видео: MPEG Video 2, 720x576 (16:9), 25 fps, ~3084 kbps avg, 0.297 bit/pixel
Аудио: MPEG Audio 2, 2 ch, 48 kHz, 192.00 kbps - французский

MediaInfo

GeneralUnique ID : 68981039606022726930183331354524019217 (0x33E543D58C0E8AC68303638B7FA06A11)Complete name : [apreder]1954_la_Riviera_et_Willy_Rozier_crea_Callaghan(2016)DVB.mkvFormat : MatroskaFormat version : Version 2File size : 1.05 GiBDuration : 44 min 53 sOverall bit rate mode : VariableOverall bit rate : 3 343 kb/sMovie name : 1954, la Riviera: et Willy Rozier crea CallaghanReleased date : 2016-00-00Encoded date : UTC 2019-07-04 14:15:21Writing application : mkvmerge v35.0.0 ('All The Love In The World') 64-bitWriting library : libebml v1.3.9 + libmatroska v1.5.2Cover : YesAttachments : cover.jpg / small_cover.jpgDIRECTOR : Sonia MedinaGENRE : DocumentaryKEYWORDS : LAW_RATING : 12+
VideoID : 1Format : MPEG VideoFormat version : Version 2Format profile : Main@MainFormat settings : BVOPFormat settings, BVOP : YesFormat settings, Matrix : DefaultFormat settings, GOP : M=4, N=12Format settings, picture structure : FrameCodec ID : V_MPEG2Codec ID/Info : MPEG 1 or 2 VideoDuration : 44 min 53 sBit rate mode : VariableBit rate : 3 084 kb/sWidth : 720 pixelsHeight : 576 pixelsDisplay aspect ratio : 16:9Frame rate mode : ConstantFrame rate : 25.000 FPSStandard : PALColor space : YUVChroma subsampling : 4:2:0Bit depth : 8 bitsScan type : InterlacedScan order : Top Field FirstCompression mode : LossyBits/(Pixel*Frame) : 0.297Time code of first frame : 00:00:00:00Time code source : Group of pictures headerGOP, Open/Closed : OpenGOP, Open/Closed of first frame : ClosedStream size : 990 MiB (92%)Default : YesForced : No
AudioID : 2Format : MPEG AudioFormat version : Version 1Format profile : Layer 2Format settings : Joint stereo / Intensity Stereo + MS StereoCodec ID : A_MPEG/L2Codec ID/Hint : MP2Duration : 44 min 53 sBit rate mode : ConstantBit rate : 192 kb/sChannel(s) : 2 channelsSampling rate : 48.0 kHzCompression mode : LossyStream size : 61.6 MiB (6%)Language : FrenchDefault : YesForced : No
Text #1ID : 3Format : VobSubCodec ID : S_VOBSUBCodec ID/Info : Picture based subtitle format used on DVDsLanguage : RussianDefault : NoForced : No
Text #2ID : 4Format : VobSubCodec ID : S_VOBSUBCodec ID/Info : Picture based subtitle format used on DVDsLanguage : EnglishDefault : NoForced : No
Text #3ID : 5Format : UTF-8Codec ID : S_TEXT/UTF8Codec ID/Info : UTF-8 Plain TextTitle : TeletexteLanguage : EnglishDefault : NoForced : No
Text #4ID : 6Format : VobSubCodec ID : S_VOBSUBCodec ID/Info : Picture based subtitle format used on DVDsLanguage : FrenchDefault : NoForced : No
Text #5ID : 7Format : UTF-8Codec ID : S_TEXT/UTF8Codec ID/Info : UTF-8 Plain TextTitle : TeletexteLanguage : FrenchDefault : NoForced : No
Text #6ID : 8Format : VobSubCodec ID : S_VOBSUBCodec ID/Info : Picture based subtitle format used on DVDsLanguage : GermanDefault : NoForced : No
Text #7ID : 9Format : VobSubCodec ID : S_VOBSUBCodec ID/Info : Picture based subtitle format used on DVDsLanguage : DutchDefault : NoForced : No
Text #8ID : 10Format : VobSubCodec ID : S_VOBSUBCodec ID/Info : Picture based subtitle format used on DVDsLanguage : RomanianDefault : NoForced : No
Text #9ID : 11Format : VobSubCodec ID : S_VOBSUBCodec ID/Info : Picture based subtitle format used on DVDsLanguage : SpanishDefault : NoForced : No

Скриншоты


Резервные скриншоты


-[4'638]
[ru-zerkalo.org]_t_5751948
Torrent: Registered ·  [ 2019-08-05 23:49 ] ·  12e0bf5c09531f5252b57213ad9603514dcaaf6c

11 KB

Status: checked
Completed: 0 times
Size: 1.05 GB
Rating: 
(Votes: 0)
Say thanks: 0  Thanks
 
Похожие темы
[Profile] [PM]
Display posts from previous:    
Reply to topic

The time now is: Today 13:28

All times are GMT + 7 Hours



You cannot post new topics in this forum
You cannot reply to topics in this forum
You cannot edit your posts in this forum
You cannot delete your posts in this forum
You cannot vote in polls in this forum
You cannot attach files in this forum
You can download files in this forum