Register · 
Username: Password:
 ·  Forgot password?

Звездные войны: Праздничный спецвыпуск / Звездные войны: Специальный праздничный выпуск / The Star Wars Holiday Special (Стив Биндер / Steve Binder, Дэвид Акомба / David Acomba) [1978, США, мюзикл, фантастика, приключения, VHSRip] VO (allecs2010)

Reply to topic
DL-List and Torrent activity [Update пиров]
Size:  719 MB   |    Registered:  2 months 11 days   |    Completed:  0 times

Seeder not seen: Never

 
   
 
 
 
Author Message

god56 ®

Gender:

Longevity: 6 years

Posts: 25819

Post 11-Aug-2019 12:05

[Quote]

Звездные войны: Праздничный спецвыпуск / Звездные войны: Специальный праздничный выпуск / The Star Wars Holiday Special
Страна: США
Жанр: мюзикл, фантастика, приключения, семейный
Год выпуска: 1978
Продолжительность: 01:47:32
-
Перевод: Одноголосый закадровый allecs2010 по субтитрам afterstorm
Субтитры: нет
-
Режиссер: Стив Биндер / Steve Binder, Дэвид Акомба / David Acomba
В ролях: Марк Хэмилл, Харрисон Форд, Кэрри Фишер, Энтони Дэниэлс, Питер Мэйхью, Джеймс Эрл Джонс, Беатрис Артур, Арт Карни, Дайан Кэрролл, Харви Корман
-
Описание: Чубакка и Хан Соло прилетают на Кашиийк, родную планету вуки, чтобы отпраздновать День жизни (аналог Рождества). Их преследуют агенты Империи, которые заодно разыскивают на Кашиийке повстанцев. Сцены фильма также разворачиваются на других планетах и в открытом космосе. В эпизодах появляются многие персонажи «Звёздных войн»: Люк Скайуокер, C-3PO, R2-D2, Дарт Вейдер, принцесса Лея Органа (которая исполняет песню ближе к концу фильма). Мультипликационная вставка знакомит зрителей с охотником за головами Бобой Феттом.
-
Осенью 1978 года, после шумного успеха первых "Звездных войн", компания CBS выпустила двухчасовое телевизионное шоу с участием почти всех звезд из "Новой надежды" (которая в то время, правда, еще не была "Новой надеждой"). Не принимали участия в проекте лишь сэр Алек Гиннесс и Питер Кашинг. Фильм был приурочен ко Дню Благодарения и представлял собой что-то вроде мюзикла, в котором перемешались жанровые сценки, музыкальные вставки и анимационные ролики. Сюжет был построен на том, как знаменитый вуки Чубакка (на "Тысячелетнем Соколе", пилотируемом Ханом Соло) возвращается к себе домой, на Кашииик, чтобы встретить праздник вместе с родственниками. Его жене Малле, отцу Итчи и сыну Лумпи пришлось пережить много неприятных минут по вине Дарта Вейдера, который заподозрил их в симпатиях к Повстанцам.
Сам Джордж Лукас не принимал участия в работе над этим проектом, хотя ему и принадлежали идея сценария и некоторые из сюжетных элементов. Готовый продукт Лукасу пришелся не по душе - возможно, по этой причине его имени даже нет в перечне лиц, работавших над проектом. В 1989 году Lucasfilm выкупил все права на "Star Wars Holiday Special" и в настоящее время является его единоличным владельцем. Злые языки утверждают, будто это было сделано для того, чтобы никто и никогда больше не смог увидеть "Особый Праздник". Ему даже приписывают следующую фразу, будто бы произнесенную на конвенте по научной фантастике в Австралии: "Будь у меня достаточно времени и молоток побольше, я бы изничтожил все копии "Holiday Special".
Несмотря на то, что "Star Wars Holiday Special" с художественной точки зрения не выдерживает никакой критики, он, как и любой запретный плод, вот уже более тридцати лет притягивает к себе поклонников и энтузиастов.
-
Доп. информация:
-
Сэмпл: http://sendfile.su/1509483
-
Качество видео: VHSRip отсюда http:///forum/viewtopic.php?t=2975037
Формат видео: AVI
Видео: 720x480 (1.50:1), 29.970 fps, DivX Codec 5.2.1 beta ~795 kbps avg, 0.08 bit/pixel
Аудио: 48 kHz, MPEG Layer 3, 2 ch, ~128.00 kbps avg

MediaInfo

GeneralComplete name : C:\Users\ALEX\Desktop\Фильмы\The Star Wars Holiday Special.1978.RUS.VHSRip.DivX.MPEG Audio.aviFormat : AVIFormat/Info : Audio Video InterleaveFile size : 719 MiBDuration : 1h 47mnOverall bit rate : 935 KbpsWriting application : VirtualDubMod 1.5.10.2 (build 2542/release)Writing library : VirtualDubMod build 2542/release
VideoID : 0Format : MPEG-4 VisualFormat settings, BVOP : YesFormat settings, QPel : NoFormat settings, GMC : No warppointsFormat settings, Matrix : Default (H.263)Codec ID : DX50Codec ID/Hint : DivX 5Duration : 1h 47mnBit rate : 795 KbpsWidth : 720 pixelsHeight : 480 pixelsDisplay aspect ratio : 3:2Frame rate : 29.970 fpsStandard : NTSCColor space : YUVChroma subsampling : 4:2:0Bit depth : 8 bitsScan type : ProgressiveCompression mode : LossyBits/(Pixel*Frame) : 0.077Stream size : 612 MiB (85%)Writing library : DivX 5.2.1 Beta (UTC 2004-09-08)
AudioID : 1Format : MPEG AudioFormat version : Version 1Format profile : Layer 3Codec ID : 55Codec ID/Hint : MP3Duration : 1h 47mnBit rate mode : ConstantBit rate : 128 KbpsChannel(s) : 2 channelsSampling rate : 48.0 KHzCompression mode : LossyStream size : 98.5 MiB (14%)Alignment : Aligned on interleavesInterleave, duration : 33 ms (1.00 video frame)Interleave, preload duration : 504 ms

Скриншоты

[ru-zerkalo.org]_t_5763007
Torrent: Registered ·  [ 2019-08-11 12:05 ] ·  20e5b055ed04ad7051f1da344309e3557239db95

15 KB

Status: checked
Completed: 0 times
Size: 719 MB
Rating: 
(Votes: 0)
Say thanks: 0  Thanks
 
Похожие темы
[Profile] [PM]
Display posts from previous:    
Reply to topic

The time now is: Today 07:56

All times are GMT + 7 Hours



You cannot post new topics in this forum
You cannot reply to topics in this forum
You cannot edit your posts in this forum
You cannot delete your posts in this forum
You cannot vote in polls in this forum
You cannot attach files in this forum
You can download files in this forum