Register · 
Username: Password:
 ·  Forgot password?

Азартные игры / Reindeer Games (Джон Франкенхаймер / John Frankenheimer) [2000, США, боевик, криминал, BDRip] [Театральная версия / Theatrical Cut] AVO (Юрий Живов)

Reply to topic
DL-List and Torrent activity [Update пиров]
Size:  1.46 GB   |    Registered:  6 months 6 days   |    Completed:  0 times

Seeder not seen: Never

 
   
 
 
 
Author Message

FragoMan ®

Gender:

Longevity: 6 years 4 months

Posts: 25034

Post 11-Aug-2019 12:06

[Quote]

Азартные игры / Reindeer Games
Страна: США
Жанр: боевик, криминал
Год выпуска: 2000
Продолжительность: 01:44:16
Перевод: Авторский (одноголосый закадровый) Юрий Живов
Субтитры: нет
Режиссер: Джон Франкенхаймер / John Frankenheimer
В ролях: Бен Аффлек, Гэри Синиз, Шарлиз Терон, Деннис Фарина, Джеймс Фрейн, Донал Лог, Дэнни Трехо, Айзек Хейз, Гордон Тутусис
Описание: Банда тщательно планирует ограбление казино. Для этого им необходим Ник, знающий все о системе охраны заведения, но в настоящее время он отбывает тюремный срок, который уже подходит к концу. Казалось бы, бандитский план безупречен: с Ником переписывается симпатичная девушка Эшли, которая отправляется в тюрьму к нему на встречу. Но друг Ника – Руди втягивается в азартную игру: стремясь познакомится с красивой девушкой, он выдает себя за Ника. И теперь эта шутка может обернуться для него весьма плачевно…

Сэмпл: http://multi-up.com/1238525
Качество видео: BDRip ( BDRemux 1080p)
Формат видео: AVI
Видео: XviD 73, 720x400, (16:9), 23,976 fps, 1552 Кбит/с, 8 бит
Аудио: Русский (АС3, 6 ch (Front: L C R, Side: L R, LFE), 48,0 KHz, 448 Kbps

MediaInfo

ОбщееПолное имя : D:\Фильмы на трекер\Азартные игры (боевик, криминал 2000 год).aviФормат : AVIФормат/Информация : Audio Video InterleaveРазмер файла : 1,46 ГбайтПродолжительность : 1 ч. 44 м.Общий поток : 2009 Кбит/секПрограмма кодирования : VirtualDubMod 1.5.10.2 (build 2540/release)Библиотека кодирования : VirtualDubMod build 2540/release
ВидеоИдентификатор : 0Формат : MPEG-4 VisualПрофиль формата : Advanced Simple@L5Параметр BVOP формата : 2Параметр QPel формата : НетПараметр GMC формата : Без точки переходаПараметр матрицы формата : ВыборочнаяИдентификатор кодека : XVIDИдентификатор кодека/Подсказка : XviDПродолжительность : 1 ч. 44 м.Битрейт : 1552 Кбит/секШирина : 720 пикселейВысота : 400 пикселейСоотношение сторон : 16:9Частота кадров : 23,976 (23976/1000) кадра/секЦветовое пространство : YUVСубдискретизация насыщенности : 4:2:0Битовая глубина : 8 битТип развёртки : ПрогрессивнаяМетод сжатия : С потерямиБит/(Пиксели*Кадры) : 0.225Размер потока : 1,13 Гбайт (77%)Библиотека кодирования : XviD 73
АудиоИдентификатор : 1Формат : AC-3Формат/Информация : Audio Coding 3Расширение режима : CM (complete main)Параметр Endianness формата : BigИдентификатор кодека : 2000Продолжительность : 1 ч. 44 м.Вид битрейта : ПостоянныйБитрейт : 448 Кбит/секКаналы : 6 каналовРасположение каналов : Front: L C R, Side: L R, LFEЧастота : 48,0 КГцЧастота кадров : 31,250 кадров/сек (1536 spf)Метод сжатия : С потерямиРазмер потока : 334 Мбайт (22%)Выравнивание : Разделение по промежуткамПродолжительность промежутка : 42 мс. (1,00 видеокадр)Время предзагрузки промежутка : 500 мс.

Скриншот c названием фильма

Скриншоты

[ru-zerkalo.org]_t_5764434
Torrent: Registered ·  [ 2019-08-11 12:05 ] ·  d3e5a2586dc56385f557bd038f847027d9ccd4ea

15 KB

Status: checked
Completed: 0 times
Size: 1.46 GB
Rating: 
(Votes: 0)
Say thanks: 0  Thanks
 
Похожие темы
[Profile] [PM]
Display posts from previous:    
Reply to topic

The time now is: Today 15:03

All times are GMT + 7 Hours



You cannot post new topics in this forum
You cannot reply to topics in this forum
You cannot edit your posts in this forum
You cannot delete your posts in this forum
You cannot vote in polls in this forum
You cannot attach files in this forum
You can download files in this forum