Register · 
Username: Password:
 ·  Forgot password?

Легенда о разорении династии / Jue Ji / L.O.R.D: Legend of Ravaging Dynasties / Следы династий: Легенда о воюющих царствах [Movie] [1 из 1] [Без хардсаба] [RUS(int), ENG(int),CHI(int)+SUB] [2016, Приключения, Фэнтези, WEB-DL] [1080p]

Reply to topic
DL-List and Torrent activity [Update пиров]
Size:  4.45 GB   |    Registered:  5 months 15 days   |    Completed:  0 times

Seeder not seen: Never

 
   
 
 
 
Author Message

Shadow123 ®

Gender:

Longevity: 6 years 4 months

Posts: 15358

Post 11-Aug-2019 12:06

[Quote]

- Страна: Китай
Год выпуска: 2016
Жанр: Приключения, Фэнтези
Тип: Movie
Продолжительность: 1 час 58 мин.
Режиссер: Го Цзинмин
Студия: Le Vision Pictures-Озвучка:
1. СВ-Дубль (многоголосая, дублированная, с телеканала FAN)Сэмпл
2. Английская (многоголосая, дублированная)
Субтитры:
1. COMEBACK и White & Black
Thel, Makc MiRa, AiDana,
Creepy Joe, R.R., TUMARU, Nyman-Описание: Деревенский парнишка Чилин работал на подхвате в местной таверне, когда в город пришли столичные маги-алхимики. Маги собирались поймать опасное чудовище — ледяного енота — но слегка ошиблись с животным и заплатили за это жизнью.
Но зато в эту страшную ночь, погубившую множество жизней, у Чилина проснулись магические способности. Он случайно обуздал зверя, после чего был взят в ученики одним из верховных алхимиков Гланорта — Инь Чэнем (Силвером). Теперь деревенский простачок оказался вовлечен в самое пекло политических интриг и бесконечной борьбы магов за власть над континентом. Власть, способную сокрушить всё мироздание.-Качество: WEB-DL 1080p
Тип релиза: Без хардсаба, без линковки
Формат видео: MKV
Автор рипа: OryWare Kyrie
Совместимость с бытовыми плеерами: Нет
Видео: AVC, 1912x800, 4578 kbps, 23,976fps, 8 bit
Аудио: AC3, 448 kbps, 48 Hz, 6 ch, CHI (в составе контейнера)
Аудио 1: AC3, 192 kbps, 48 Hz, 2 ch, RUS (в составе контейнера)
Аудио 2: AC3, 192 kbps, 48 Hz, 2 ch, ENG (в составе контейнера)
Субтитры 1: ASS, RUS (внешним файлом)-Эндинг в конце русского дубляжа обрезан. Хотите послушать - переключите аудиодорожку на китайскую или английскую.

Подробные тех. данные

ОбщееУникальный идентификатор : 174394024008380366830206286195385232248 (0x8333113A4F677C8FFF32666CE0F8EB78)Полное имя : E:\RUTRACKER\Jue ji (2016) [1080p] [WEB-DL] [AVC DD5.1-2.0] [Multi-Audio]\Jue ji (2016) [1080p] [WEB-DL] [AVC DD5.1-2.0] [Multi-Audio].mkvФормат : MatroskaВерсия формата : Version 4Размер файла : 4,45 ГбайтПродолжительность : 1 ч. 57 м.Общий поток : 5411 Кбит/секНазвание фильма : Jue ji (2016) - By: OryWare KyrieДата кодирования : UTC 2019-05-09 20:42:35Программа кодирования : mkvmerge v31.0.0 ('Dolores In A Shoestand') 64-bitБиблиотека кодирования : libebml v1.3.6 + libmatroska v1.4.9Обложка : YesAttachments : small_cover.jpg / cover.jpg
ВидеоИдентификатор : 1Формат : AVCФормат/Информация : Advanced Video CodecПрофиль формата : High@L4Настройки формата : CABAC / 5 Ref FramesПараметр CABAC формата : ДаПараметр RefFrames формата : 5 кадровИдентификатор кодека : V_MPEG4/ISO/AVCПродолжительность : 1 ч. 57 м.Битрейт : 4578 Кбит/секШирина : 1912 пикселейВысота : 800 пикселейСоотношение сторон : 2,40:1Режим частоты кадров : ПостоянныйЧастота кадров : 23,976 кадра/секЦветовое пространство : YUVСубдискретизация насыщенности : 4:2:0Битовая глубина : 8 битТип развёртки : ПрогрессивнаяБит/(Пиксели*Кадры) : 0.125Размер потока : 3,76 Гбайт (85%)Заголовок : 中國傳統(中國)Язык : ChineseDefault : ДаForced : НетЦветовой диапазон : LimitedОсновные цвета : BT.709Характеристики трансфера : BT.709Коэффициенты матрицы : BT.709
Аудио #1Идентификатор : 2Формат : AC-3Формат/Информация : Audio Coding 3Коммерческое название : Dolby DigitalИдентификатор кодека : A_AC3Продолжительность : 1 ч. 57 м.Вид битрейта : ПостоянныйБитрейт : 448 Кбит/секКаналы : 6 каналовChannel layout : L R C LFE Ls RsЧастота : 48,0 КГцЧастота кадров : 31,250 кадров/сек (1536 SPF)Битовая глубина : 16 битМетод сжатия : С потерямиРазмер потока : 377 Мбайт (8%)Заголовок : КитайскаяЯзык : ChineseServiceKind/String : Complete MainDefault : НетForced : Нет
Аудио #2Идентификатор : 3Формат : AC-3Формат/Информация : Audio Coding 3Коммерческое название : Dolby DigitalИдентификатор кодека : A_AC3Продолжительность : 1 ч. 57 м.Вид битрейта : ПостоянныйБитрейт : 192 Кбит/секКаналы : 2 каналаChannel layout : L RЧастота : 48,0 КГцЧастота кадров : 31,250 кадров/сек (1536 SPF)Битовая глубина : 16 битМетод сжатия : С потерямиРазмер потока : 161 Мбайт (4%)Заголовок : АнглийскаяЯзык : EnglishServiceKind/String : Complete MainDefault : НетForced : Нет
Аудио #3Идентификатор : 4Формат : AC-3Формат/Информация : Audio Coding 3Коммерческое название : Dolby DigitalИдентификатор кодека : A_AC3Продолжительность : 1 ч. 57 м.Вид битрейта : ПостоянныйБитрейт : 192 Кбит/секКаналы : 2 каналаChannel layout : L RЧастота : 48,0 КГцЧастота кадров : 31,250 кадров/сек (1536 SPF)Битовая глубина : 16 битМетод сжатия : С потерямиРазмер потока : 162 Мбайт (4%)Заголовок : СВ-ДубльЯзык : RussianServiceKind/String : Complete MainDefault : ДаForced : Нет
Меню00:00:00.000 : en:100:10:43.000 : en:200:21:53.000 : en:300:32:32.000 : en:400:44:36.000 : en:500:54:43.000 : en:601:02:36.000 : en:701:11:20.000 : en:801:21:43.000 : en:901:28:43.000 : en:1001:38:26.000 : en:1101:52:47.000 : en:12

Скриншоты

[ru-zerkalo.org]_t_5730216
Torrent: Registered ·  [ 2019-08-11 12:05 ] ·  2714d67b13283ba492250ba527dc7e687ad97dfe

12 KB

Status: checked
Completed: 0 times
Size: 4.45 GB
Rating: 
(Votes: 0)
Say thanks: 0  Thanks
 
Похожие темы
[Profile] [PM]
Display posts from previous:    
Reply to topic

The time now is: Today 05:13

All times are GMT + 7 Hours



You cannot post new topics in this forum
You cannot reply to topics in this forum
You cannot edit your posts in this forum
You cannot delete your posts in this forum
You cannot vote in polls in this forum
You cannot attach files in this forum
You can download files in this forum