Register · 
Username: Password:
 ·  Forgot password?

Безумные лыжники / Стремительный Вилли / Ski Hard / Downhill Willie (Дэвид Митчелл / David Mitchell) [1995, Канада, США, комедия, DVDRip] AVO (Юрий Сербин / Видеосервис)

Reply to topic
DL-List and Torrent activity [Update пиров]
Size:  1.45 GB   |    Registered:  6 months 3 days   |    Completed:  1 time

Seeder not seen: 5 months 30 days

 
   
 
 
 
Author Message

FragoMan ®

Gender:

Longevity: 6 years 4 months

Posts: 25034

Post 16-Aug-2019 12:59

[Quote]

Безумные лыжники / Стремительный Вилли / Ski Hard / Downhill Willie
Год выпуска: 1995
Страна: Канада, США
Жанр: комедия
Продолжительность: 01:31:23
Перевод: Авторский (одноголосый закадровый) - Юрий Сербин / Видеосервис
Субтитры: нет
Режиссер: Дэвид Митчелл / David Mitchell
В ролях: Кит Куган / Willie Jones, Локлин Манро / Spider Bolton, Стэйси Кинан / Annie Meyers, Эстель Харрис / Mama Saxer, Фред Столлер / Mel Horner, Ли Рехерман / Hans Saxer, Эндрю Эйрли / Jack Murphy, Фил Хэйес / Kelly Burns, Жак Лалонд / Guy Lebeau, Дин МакКензи / Half-Pipe-Мировая премьера: 15 ноября 1996-Описание: Герой этой веселой спортивной комедии - горнолыжник, страстно мечтающий победить на престижных гонках. Кто же станет обладателем денежного приза в этом экстремальном виде спорта?-Огромная благодарность за помощь в создании релиза:
[url=profile.php?mode=viewprofile&u=20564]Fikaloid[/url] - перевод Юрия Сербина, оцифрованный со своей лицензионной видеокассеты от видео-концерна "Видеосервис".
[url=profile.php?mode=viewprofile&u=20398762]JUSTKANT[/url] - видеоряд из СГ и синхронизация перевода.-Рейтинг
-Качество видео: DVDRip
Формат видео: AVI -> //Сэмпл//
Видео: XviD, 720x544 (4:3), 25.000 fps, 2083 kbps
Аудио:
1 - 48 khz, AC3 Dolby Digital, 2/0 (L,R) ch, ~192 kbps [Сербин / Видеосервис] VHSRip

MediaInfo

GeneralComplete name : C:\Users\alber\Videos\Фильмы для рутрекера\Безумные лыжники (Видеосервис (Сербин)).aviFormat : AVIFormat/Info : Audio Video InterleaveFile size : 1.45 GiBDuration : 1 h 31 minOverall bit rate : 2 272 kb/sMovie name : Безумные лыжники / Стремительный Вилли / Ski Hard / Downhill Willie (Видеосервис / Сербин)Director : JUSTKANTWriting application : VirtualDubMod 1.5.10.3 | www.virtualdub-fr.org || (build 2550/release)Copyright : Качество звука: VHSRip (Fikaloid)
VideoID : 0Format : MPEG-4 VisualFormat profile : Advanced Simple@L5Format settings : BVOP1 / Custom MatrixFormat settings, BVOP : 1Format settings, QPel : NoFormat settings, GMC : No warppointsFormat settings, Matrix : CustomCodec ID : XVIDCodec ID/Hint : XviDDuration : 1 h 31 minBit rate : 2 083 kb/sWidth : 720 pixelsHeight : 544 pixelsDisplay aspect ratio : 4:3Frame rate : 25.000 FPSColor space : YUVChroma subsampling : 4:2:0Bit depth : 8 bitsScan type : ProgressiveCompression mode : LossyBits/(Pixel*Frame) : 0.213Stream size : 1.33 GiB (92%)Writing library : XviD 1.2.1 (UTC 2008-12-04)
AudioID : 1Format : AC-3Format/Info : Audio Coding 3Commercial name : Dolby DigitalCodec ID : 2000Duration : 1 h 25 minBit rate mode : ConstantBit rate : 192 kb/sChannel(s) : 2 channelsChannel layout : L RSampling rate : 48.0 kHzFrame rate : 31.250 FPS (1536 SPF)Bit depth : 16 bitsCompression mode : LossyStream size : 117 MiB (8%)Alignment : Split across interleavesInterleave, duration : 43 ms (1.07 video frame)Interleave, preload duratio : 500 msTitle : Юрий Сербин: VHSRip (лицензия от Видеосервис)Service kind : Complete Main

Скриншоты

[ru-zerkalo.org]_t_5766566
Torrent: Registered ·  [ 2019-08-16 12:59 ] ·  d1f46407cedde8bcf665c501e26f95687a234fc6

15 KB

Status: checked
Completed: 1 times
Size: 1.45 GB
Rating: 
(Votes: 0)
Say thanks: 0  Thanks
 
Похожие темы
[Profile] [PM]
Display posts from previous:    
Reply to topic

The time now is: Today 01:28

All times are GMT + 7 Hours



You cannot post new topics in this forum
You cannot reply to topics in this forum
You cannot edit your posts in this forum
You cannot delete your posts in this forum
You cannot vote in polls in this forum
You cannot attach files in this forum
You can download files in this forum