Register · 
Username: Password:
 ·  Forgot password?

Путь оружия / The Way of the Gun (Кристофер МакКуорри / Christopher McQuarrie) [2000, США, Криминальная драма, VHSRip-VHS] [Fullscreen] MVO (West Video)

Reply to topic
DL-List and Torrent activity [Update пиров]
Size:  3.36 GB   |    Registered:  5 months 27 days   |    Completed:  0 times

Seeder not seen: Never

 
   
 
 
 
Author Message

FragoMan ®

Gender:

Longevity: 6 years 4 months

Posts: 25034

Post 23-Aug-2019 16:03

[Quote]

Путь оружия / The Way of the Gun / Fullscreen
Страна: США
Жанр: Криминальная драма
Год выпуска: 2000
Продолжительность: 01:54:27
Перевод: Профессиональный (многоголосый закадровый) West Video
Субтитры: нет
Оригинальная аудиодорожка: нет
Режиссер: Кристофер МакКуорри / Christopher McQuarrie
В ролях: Райан Филипп, Бенисио Дель Торо, Джульетт Льюис, Тэй Диггз, Никки Кэтт, Джеффри Льюис, Дилан Кассман, Скотт Уилсон, Кристин Леман, Джеймс Каан...
Описание: Большие деньги легко не достаются. Понимая это, два бандита, Паркер и Лонгбо очень тщательно подготовились к делу. Загрузившись оружием под завязку, они приступили к выполнению своего дьявольского плана.
Первый этап операции — похищение жертвы, прошел как по маслу. И все было бы в полном порядке, но на пути оружия встал некто Джо Сарно, крепко обломавший напарникам все планы.
Доп. информация: Оцифровка лицензионной VHS из собственной коллекции.
Fullscreen!
Сэмпл: http://sendfile.su/1512315
Качество видео: VHSRip-AVC
Формат видео: MP4
Видео: AVC, 720х576, 5:4, 50,000 кадров/сек, 4000 Кбит/сек
Аудио: AAC, 64,0 КГц, 192 Кбит/сек, 2.0 Hi-Fi

MediaInfo

ОбщееПолное имя : G:\torrents\The Way of the Gun\The Way of the Gun.mp4Формат : MPEG-4Профиль формата : Base MediaИдентификатор кодека : isom (isom/iso2/avc1/mp41)Размер файла : 3,36 ГбайтПродолжительность : 1 ч. 54 м.Общий поток : 4198 Кбит/секПрограмма кодирования : Lavf57.56.101
ВидеоИдентификатор : 1Формат : AVCФормат/Информация : Advanced Video CodecПрофиль формата : Baseline@L3Настройки формата : 1 Ref FramesПараметр CABAC формата : НетПараметр RefFrames формата : 1 кадрПараметр GOP формата : M=1, N=100Идентификатор кодека : avc1Идентификатор кодека/Информация : Advanced Video CodingПродолжительность : 1 ч. 54 м.Битрейт : 4000 Кбит/секШирина : 720 пикселейВысота : 576 пикселейСоотношение сторон : 5:4Режим частоты кадров : ПостоянныйЧастота кадров : 50,000 кадров/секЦветовое пространство : YUVСубдискретизация насыщенности : 4:2:0Битовая глубина : 8 битТип развёртки : ПрогрессивнаяБит/(Пиксели*Кадры) : 0.193Размер потока : 3,20 Гбайт (95%)
АудиоИдентификатор : 2Формат : AACФормат/Информация : Advanced Audio CodecПрофиль формата : LTPИдентификатор кодека : mp4a-40-4Продолжительность : 1 ч. 54 м.Вид битрейта : ПостоянныйБитрейт : 192 Кбит/секКаналы : 2 каналаChannel(s)_Original : 3 каналаРасположение каналов : Front: L C RЧастота : 64,0 КГцЧастота кадров : 62,500 кадра/сек (1024 SPF)Метод сжатия : С потерямиРазмер потока : 155 Мбайт (5%)Default : ДаAlternateGroup/String : 1

Скриншот c названием фильма

[ru-zerkalo.org]_t_5769184
Torrent: Registered ·  [ 2019-08-23 16:03 ] ·  c24647875f8fc71752e85c3d65637c9b776ec91a

17 KB

Status: checked
Completed: 0 times
Size: 3.36 GB
Rating: 
(Votes: 0)
Say thanks: 0  Thanks
 
Похожие темы
[Profile] [PM]
Display posts from previous:    
Reply to topic

The time now is: Today 01:30

All times are GMT + 7 Hours



You cannot post new topics in this forum
You cannot reply to topics in this forum
You cannot edit your posts in this forum
You cannot delete your posts in this forum
You cannot vote in polls in this forum
You cannot attach files in this forum
You can download files in this forum