Register · 
Username: Password:
 ·  Forgot password?

Фантазия на тему актрисы без амплуа. Лидия Сухаревская (Елена Никитан) [2009, Документальный, биография, история, культура, SATRip]

Reply to topic
DL-List and Torrent activity [Update пиров]
Size:  453 MB   |    Registered:  5 months 10 days   |    Completed:  0 times

Seeder not seen: Never

 
   
 
 
 
Author Message

Nestor_13 ®

Gender:

Longevity: 6 years 4 months

Posts: 21727

Post 11-Sep-2019 00:29

[Quote]

Фантазия на тему актрисы без амплуа. Лидия Сухаревская
Дата/Год выпуска: 2009
Страна: Россия, ГТРК "Культура"
Жанр: Документальный, биография, история, культура
Продолжительность: 00:38:53
Перевод: Не требуется
Режиссер: Елена Никитан
Описание: Искусство Лидии Сухаревской отмечено тонкостью, интеллигентностью, мягким юмором. Удавались актрисе и острохарактерные роли. Среди лучших работ: великая княгиня Елена Павловна ("Мусоргский"), Раиса Петерсон ("Поединок"), Антонина Ивановна ("Жизнь сначала", автор пьесы, а затем сценария), графиня Лидия Ивановна ("Анна Каренина").
качество: SATRip
формат: AVI
Видео: 704x448 (1.33:1), 25 fps, XviD build 50 ~1630 kbps avg, 0.16 bit/pixel
Аудио: 48 kHz, MPEG Layer 3, 2 ch, ~128.00 kbps avg

Скриншоты




MediaInfo

Общее
Полное имя : C:\Users\Андрей\Desktop\Мои рипы\Фантазия на тему актрисы без амплуа. Лидия Сухаревская.avi
Формат : AVI
Формат/Информация : Audio Video Interleave
Размер файла : 453 Мбайт
Продолжительность : 38 м.
Общий поток : 1630 Кбит/сек
Программа кодирования : VirtualDubMod 1.5.10.3 | www.virtualdub-fr.org || (build 2550/release)
Библиотека кодирования : VirtualDubMod build 2550/release
Видео
Идентификатор : 0
Формат : MPEG-4 Visual
Профиль формата : Simple@L1
Параметр BVOP формата : Нет
Параметр QPel формата : Нет
Параметр GMC формата : Без точки перехода
Параметр матрицы формата : Default (H.263)
Идентификатор кодека : XVID
Идентификатор кодека/Подсказка : XviD
Продолжительность : 38 м.
Битрейт : 1492 Кбит/сек
Ширина : 704 пикселя
Высота : 448 пикселей
Соотношение сторон : 16:10
Частота кадров : 25,000 кадров/сек
Цветовое пространство : YUV
Субдискретизация насыщенности : 4:2:0
Битовая глубина : 8 бит
Тип развёртки : Прогрессивная
Метод сжатия : С потерями
Бит/(Пиксели*Кадры) : 0.189
Размер потока : 415 Мбайт (92%)
Библиотека кодирования : Lavc53.33.0
Аудио
Идентификатор : 1
Формат : MPEG Audio
Версия формата : Version 1
Профиль формата : Layer 3
Идентификатор кодека : 55
Идентификатор кодека/Подсказка : MP3
Продолжительность : 38 м.
Вид битрейта : Постоянный
Битрейт : 128 Кбит/сек
Каналы : 2 канала
Частота : 48,0 КГц
Метод сжатия : С потерями
Размер потока : 35,6 Мбайт (8%)
Выравнивание : Соединение по промежуткам
Продолжительность промежутка : 40 мс. (1,00 видеокадр)
Время предзагрузки промежутка : 504 мс.
Библиотека кодирования : LAME3.99r
Настройки программы : -m s -V 4 -q 2 -lowpass 17 -b 128
[ru-zerkalo.org]_t_4943812
Torrent: Registered ·  [ 2019-09-11 00:29 ] ·  88edc937c7efb21260f2febb7e9fb0b5cf2027e1

18 KB

Status: checked
Completed: 0 times
Size: 453 MB
Rating: 
(Votes: 0)
Say thanks: 0  Thanks
 
Похожие темы
[Profile] [PM]
Display posts from previous:    
Reply to topic

The time now is: Today 13:08

All times are GMT + 7 Hours



You cannot post new topics in this forum
You cannot reply to topics in this forum
You cannot edit your posts in this forum
You cannot delete your posts in this forum
You cannot vote in polls in this forum
You cannot attach files in this forum
You can download files in this forum