Register · 
Username: Password:
 ·  Forgot password?

Кукла (Кира Муратова) [2007, Украина, драма, короткий метр, WEBRip-AVC] Original Rus

Reply to topic
 
Author Message

manic-manic ®

Gender:

Longevity: 6 years 4 months

Posts: 14246

Post 11-Sep-2019 17:23

[Quote]

Кукла
Страна: Украина
Жанр: драма, короткий метр
Год выпуска: 2007
Продолжительность: 00:31:59
Перевод: Не требуется
Субтитры: нет
Оригинальная аудиодорожка: русский
Режиссер: Кира Муратова
В ролях: Наталья Бузько, Яков Кучеревский, Леонид Кушнир, Юрий Невгамонный, Александра Свенская, Анатолий Трухин
Описание: Мошенничество злободневно всегда. Эта история могла произойти в любую эпоху. Но само название — «Кукла», то есть фальшивая пачка денег — указывает на наше время. Персонаж фильма — веселый садист. Это извращение психики, которое граничит с безумием: «Я так ненавижу свою бывшую жену, что сделаю вид будто я ее облагодетельствовал, а на самом деле разыграю».
Доп. информация: http://www.kinopoisk.ru/film/632281/
Сэмпл: http://www.sendspace.com/file/wel8lw
Качество видео: WEBRip-AVC
Формат видео: MP4
Видео: avc, 854:480, 16:9, 25 fps, 800 kbps
Аудио: AAC, 44,1 kHz, 119 kbps, 2 channels, original

MediaInfo

ОбщееПолное имя : Кукла.mp4Формат : MPEG-4Профиль формата : Base MediaИдентификатор кодека : isomРазмер файла : 211 МбайтПродолжительность : 31 м.Режим общего битрейта : ПеременныйОбщий поток : 921 Кбит/секДата кодирования : UTC 1970-01-01 00:00:00Дата пометки : UTC 1970-01-01 00:00:00Программа кодирования : Lavf52.40.0
ВидеоИдентификатор : 1Формат : AVCФормат/Информация : Advanced Video CodecПрофиль формата : High@L3Параметр CABAC формата : ДаПараметр ReFrames формата : 3 кадраИдентификатор кодека : avc1Идентификатор кодека/Информация : Advanced Video CodingПродолжительность : 31 м.Битрейт : 800 Кбит/секШирина : 854 пикселяВысота : 480 пикселейСоотношение сторон : 16:9Режим частоты кадров : ПостоянныйЧастота кадров : 25,000 кадров/секЦветовое пространство : YUVСубдискретизация насыщенности : 4:2:0Битовая глубина : 8 битТип развёртки : ПрогрессивнаяБит/(Пиксели*Кадры) : 0.078Размер потока : 182 Мбайт (86%)Библиотека кодирования : x264 core 79Настройки программы : cabac=1 / ref=3 / deblock=1:0:0 / analyse=0x3:0x113 / me=hex / subme=7 / psy=1 / psy_rd=1.0:0.0 / mixed_ref=1 / me_range=16 / chroma_me=1 / trellis=1 / 8x8dct=1 / cqm=0 / deadzone=21,11 / chroma_qp_offset=-2 / threads=24 / nr=0 / decimate=1 / mbaff=0 / constrained_intra=0 / bframes=3 / b_pyramid=0 / b_adapt=1 / b_bias=0 / direct=1 / wpredb=32 / wpredp=2 / keyint=250 / keyint_min=25 / scenecut=40 / rc_lookahead=40 / rc=abr / mbtree=1 / bitrate=800 / ratetol=5.0 / qcomp=0.60 / qpmin=10 / qpmax=51 / qpstep=4 / ip_ratio=1.41 / aq=1:1.00Дата кодирования : UTC 1970-01-01 00:00:00Дата пометки : UTC 1970-01-01 00:00:00
АудиоИдентификатор : 2Формат : AACФормат/Информация : Advanced Audio CodecПрофиль формата : LCИдентификатор кодека : 40Продолжительность : 31 м.Вид битрейта : ПеременныйБитрейт : 119 Кбит/секКаналы : 2 каналаРасположение каналов : Front: L RЧастота : 44,1 КГцМетод сжатия : С потерямиРазмер потока : 27,3 Мбайт (13%)Дата кодирования : UTC 1970-01-01 00:00:00Дата пометки : UTC 1970-01-01 00:00:00

Скриншоты



[Profile] [PM]
Display posts from previous:    
Reply to topic

The time now is: Today 15:07

All times are GMT + 7 Hours



You cannot post new topics in this forum
You cannot reply to topics in this forum
You cannot edit your posts in this forum
You cannot delete your posts in this forum
You cannot vote in polls in this forum
You cannot attach files in this forum
You cannot download files in this forum