Register · 
Username: Password:
 ·  Forgot password?

Слепой ужас / Не вижу зла / See No Evil (Ричард Флейшер / Richard Fleischer) [1971, Великобритания, детектив, триллер, BDRip] MVO (Петербург 5-й канал) + Original Eng

Reply to topic
DL-List and Torrent activity [Update пиров]
Size:  1.46 GB   |    Registered:  1 month   |    Completed:  0 times

Seeder not seen: Never

 
   
 
 
 
Author Message

god56 ®

Gender:

Longevity: 6 years

Posts: 25819

Post 22-Sep-2019 18:00

[Quote]

Слепой ужас / Не вижу зла / See No Evil

Страна: Великобритания
Жанр: детектив, триллер
Год выпуска: 1971
Продолжительность: 01:29:11
Перевод: Профессиональный (многоголосый закадровый) - Петербург 5-й канал
Субтитры: нет
Оригинальная аудиодорожка: английский

Режиссер: Ричард Флейшер / Richard Fleischer
В ролях: Миа Фэрроу, Дороти Элисон, Робин Бэйли, Дайан Грэйсон, Брайан Роулинсон, Пол Николас, Кристофер Мэтьюз, Макс Фолкнер, Скотт Фредерикс
Описание: Сара недавно упала с лошади и ослепла. Однажды она приезжает на ферму к своему дяде и отправляется погулять со своим другом Стивом. В это время в дом проникает маньяк и хладнокровно убивает ее родственников. Сара возвращается в дом, но так как она ничего не может видеть, она не подозревает о нахождении в доме кучи мертвых тел. Тем временем убийца вспоминает, что оставил на месте преступления важную улику и возвращается…
Сэмпл
Качество видео: BDRip
Формат видео: AVI
Видео: 704x384 (1.83:1), 23.976 fps, XviD build 73 ~2002 kbps avg, 0.31 bit/pixel
Аудио: 48 kHz, AC3 Dolby Digital, 2/0 (L,R) ch, ~192 kbps - многоголосый
Аудио: 48 kHz, AC3 Dolby Digital, 1/0 (C) ch, ~128 kbps - оригинал

MediaInfo

ОбщееПолное имя : H:\See.No.Evil.1971.bdrip_[1.46]_[teko].aviФормат : AVIФормат/Информация : Audio Video InterleaveРазмер файла : 1,46 ГбайтПродолжительность : 1 ч. 29 м.Общий поток : 2337 Кбит/секПрограмма кодирования : VirtualDubMod 1.5.10.3 | www.virtualdub-fr.org || (build 2550/release)Библиотека кодирования : VirtualDubMod build 2550/release
ВидеоИдентификатор : 0Формат : MPEG-4 VisualПрофиль формата : Advanced Simple@L5Параметр BVOP формата : 2Параметр QPel формата : НетПараметр GMC формата : Без точки переходаПараметр матрицы формата : ВыборочнаяИдентификатор кодека : XVIDИдентификатор кодека/Подсказка : XviDПродолжительность : 1 ч. 29 м.Битрейт : 2003 Кбит/секШирина : 704 пикселяВысота : 384 пикселяСоотношение сторон : 1,85:1Частота кадров : 23,976 кадра/секЦветовое пространство : YUVСубдискретизация насыщенности : 4:2:0Битовая глубина : 8 битТип развёртки : ПрогрессивнаяМетод сжатия : С потерямиБит/(Пиксели*Кадры) : 0.309Размер потока : 1,25 Гбайт (86%)Библиотека кодирования : XviD 73
Аудио #1Идентификатор : 1Формат : AC-3Формат/Информация : Audio Coding 3Расширение режима : CM (complete main)Параметр Endianness формата : BigИдентификатор кодека : 2000Продолжительность : 1 ч. 29 м.Вид битрейта : ПостоянныйБитрейт : 192 Кбит/секКаналы : 2 каналаРасположение каналов : Front: L RЧастота : 48,0 КГцБитовая глубина : 16 битМетод сжатия : С потерямиРазмер потока : 122 Мбайт (8%)Выравнивание : Разделение по промежуткамПродолжительность промежутка : 42 мс. (1,00 видеокадр)Время предзагрузки промежутка : 500 мс.
Аудио #2Идентификатор : 2Формат : AC-3Формат/Информация : Audio Coding 3Расширение режима : CM (complete main)Параметр Endianness формата : BigИдентификатор кодека : 2000Продолжительность : 1 ч. 29 м.Вид битрейта : ПостоянныйБитрейт : 128 Кбит/секКаналы : 1 каналРасположение каналов : Front: CЧастота : 48,0 КГцБитовая глубина : 16 битМетод сжатия : С потерямиРазмер потока : 81,7 Мбайт (5%)Выравнивание : Разделение по промежуткамПродолжительность промежутка : 42 мс. (1,00 видеокадр)Время предзагрузки промежутка : 500 мс.
:--
[ru-zerkalo.org]_t_5781067
Torrent: Registered ·  [ 2019-09-22 18:00 ] ·  df074470ec24c9444f260417750d5bd28a17a184

15 KB

Status: checked
Completed: 0 times
Size: 1.46 GB
Rating: 
(Votes: 0)
Say thanks: 0  Thanks
 
Похожие темы
[Profile] [PM]
Display posts from previous:    
Reply to topic

The time now is: Today 06:59

All times are GMT + 7 Hours



You cannot post new topics in this forum
You cannot reply to topics in this forum
You cannot edit your posts in this forum
You cannot delete your posts in this forum
You cannot vote in polls in this forum
You cannot attach files in this forum
You can download files in this forum