Register · 
Username: Password:
 ·  Forgot password?

Перси и «Гром» / Percy & Thunder (Айвэн Диксон / Ivan Dixon) [1993, США, Спортивная драма, DVDRip] AVO (Павел Санаев) + (Сергей Визгунов)

Reply to topic
DL-List and Torrent activity [Update пиров]
Size:  1.58 GB   |    Registered:  1 month   |    Completed:  0 times

Seeder not seen: Never

 
   
 
 
 
Author Message

FragoMan ®

Gender:

Longevity: 6 years

Posts: 24038

Post 22-Sep-2019 19:03

[Quote]

Перси и «Гром» / Percy & Thunder
"В то время как добро и зло разрывают его на части, молодой боксёр встречается с поединком всей своей жизни"
Страна: США
Жанр: Спортивная драма
Год выпуска: 1993
Продолжительность: 01:27:07
Перевод: Авторский (одноголосый закадровый) Павел Санаев
Перевод 2: Авторский (одноголосый закадровый) Сергей Визгунов
Субтитры: нет
Режиссер: Айвэн Диксон / Ivan Dixon
В ролях: Джеймс Эрл Джоунс /James Earl Jones/, Глория Фостер /Gloria Foster/, Зэйкс Мокэй /Zakes Mokae/, Глория Рубен /Gloria Reuben/, Кортни Б. Вэнс /Courtney B. Vance/, Билли Ди Уильямс /Billy Dee Williams/, Роберт Вул /Robert Wuhl/, Кетти Лестер /Ketty Lester/, Джон Плешетт /John Pleshette/, Антонио Фаргас /Antonio Fargas/, Фелтон Перри /Felton Perry/, Джоэн Прингл /Joan Pringle/, Дик Энтони Уильямс /Dick Anthony Williams/, Ллойд Баттиста /Lloyd Battista/, Хенри Дэрроу /Henry Darrow/, Джон Каподиче /John Capodice/, Тони Кокс /Tony Cox/, Фэтс Уильямс /Fats Williams/, Ллойд Уивер /Lloyd Weaver/, Мик И. Джоунс /Mick E. Jones/, Хэл Уильямс /Hal Williams/, Робби Робинсон /Robby Robinson/
Описание: Боксер Уэйн Картер по прозвищу Гром и его тренер Перси Бэнкс решают, что пора начинать профессиональную карьеру. Теперь их целью становится чемпионский титул в среднем весе. Делая этот шаг, они знали, что часто карьера в спорте делается грязными способами.
И в подтверждение этого они сразу же сталкиваются с дельцом от бокса Ральфом Тейтом, заявившем, что здесь все решает он. И действительно, честолюбивым новичкам не удается миновать влияния воротил этого доходного бизнеса.
Доп. информация: Благодарность:
Fikaloid - за две дорожки AVO
ale_x2008 - за синхрон (Санаев, Визгунов) и ремастеринг дорожки (Визгунов)

Особая благодарность serg peresad - за качественный видеоряд

Сэмпл: http://yadi.sk/i/hUIhw3CGm24Fr
Качество видео: DVDRip [DVD5 by serg peresad (Amazon)]
Формат видео: AVI
Видео: XviD build 73, 704x528 (1.33:1), 25.00 fps, 2201 kbps avg, 0.24 bit/pixel
Аудио: AC3 Dolby Digital, 48000Hz, 2/0 (L,R) ch (stereo), 192.00 kbps avg Санаев
Аудио 2: AC3 Dolby Digital, 48000Hz, 2/0 (L,R) ch (mono), 192.00 kbps avg Визгунов

MediaInfo

Перси и «Гром» - Percy and Thunder (by ale_x2008) 2 AVO.avi
Format : AVI
Format/Info : Audio Video Interleave
File size : 1.58 GiB
Duration : 1h 27mn
Overall bit rate : 2 600 Kbps
Movie name : Перси и «Гром» - Percy and Thunder (by ale_x2008)
Director : by ale_x2008
Writing application : VirtualDubMod 1.5.10.2 (build 2540/release)
Writing library : VirtualDubMod build 2540/release
Copyright : Edich2
Comment :
Video
ID : 0
Format : MPEG-4 Visual
Format profile : Advanced Simple@L5
Format settings, BVOP : 1
Format settings, QPel : No
Format settings, GMC : No warppoints
Format settings, Matrix : Default (H.263)
Codec ID : XVID
Codec ID/Hint : XviD
Duration : 1h 27mn
Bit rate : 2 202 Kbps
Width : 704 pixels
Height : 528 pixels
Display aspect ratio : 4:3
Frame rate : 25.000 fps
Color space : YUV
Chroma subsampling : 4:2:0
Bit depth : 8 bits
Scan type : Progressive
Compression mode : Lossy
Bits/(Pixel*Frame) : 0.237
Stream size : 1.34 GiB (85%)
Writing library : XviD 73
Audio #1
ID : 1
Format : AC-3
Format/Info : Audio Coding 3
Mode extension : CM (complete main)
Format settings, Endianness : Big
Codec ID : 2000
Duration : 1h 27mn
Bit rate mode : Constant
Bit rate : 192 Kbps
Channel(s) : 2 channels
Channel positions : Front: L R
Sampling rate : 48.0 KHz
Bit depth : 16 bits
Compression mode : Lossy
Delay relative to video : 1s 0ms
Stream size : 120 MiB (7%)
Alignment : Split accross interleaves
Interleave, duration : 40 ms (1.00 video frame)
Interleave, preload duration : 500 ms
Audio #2
ID : 2
Format : AC-3
Format/Info : Audio Coding 3
Mode extension : CM (complete main)
Format settings, Endianness : Big
Codec ID : 2000
Duration : 1h 27mn
Bit rate mode : Constant
Bit rate : 192 Kbps
Channel(s) : 2 channels
Channel positions : Front: L R
Sampling rate : 48.0 KHz
Bit depth : 16 bits
Compression mode : Lossy
Delay relative to video : 1s 0ms
Stream size : 120 MiB (7%)
Alignment : Split accross interleaves
Interleave, duration : 40 ms (1.00 video frame)
Interleave, preload duration : 500 ms

Скриншоты



06.12.15 ТОРРЕНТ ПЕРЕЗАЛИТ.
ДОБАВЛЕН ПЕРЕВОД ВИЗГУНОВА.
[ru-zerkalo.org]_t_5125914
Torrent: Registered ·  [ 2019-09-22 19:03 ] ·  047b183501a4027d914fa69436a2e955a797e658

16 KB

Status: checked
Completed: 0 times
Size: 1.58 GB
Rating: 
(Votes: 0)
Say thanks: 0  Thanks
 
Похожие темы
[Profile] [PM]
Display posts from previous:    
Reply to topic

The time now is: Today 08:09

All times are GMT + 7 Hours



You cannot post new topics in this forum
You cannot reply to topics in this forum
You cannot edit your posts in this forum
You cannot delete your posts in this forum
You cannot vote in polls in this forum
You cannot attach files in this forum
You can download files in this forum