Register · 
Username: Password:
 ·  Forgot password?

Шарлотта иногда / Charlotte Sometimes (Эрик Байлер / Eric Byler) [2002, США, Мелодрама, DVDRip] MVO

Reply to topic
DL-List and Torrent activity [Update пиров]
Size:  698 MB   |    Registered:  1 month   |    Completed:  0 times

Seeder not seen: Never

 
   
 
 
 
Author Message

temkin_88 ®

Gender:

Longevity: 6 years

Posts: 17371

Post 22-Sep-2019 19:03

[Quote]

Шарлотта иногда / Charlotte Sometimes
Страна: США
Жанр: Мелодрама
Год выпуска: 2002
Продолжительность: 01:25:41
Перевод: Профессиональный (многоголосый закадровый)
Субтитры: нет
Режиссер: Эрик Байлер / Eric Byler
В ролях: Жаклин Ким /Jacqueline Kim/, Юджина Юань /Eugenia Yuan/, Майкл Идемото /Michael Idemoto/, Мэтт Уэстмор /Matt Westmore/, Сидзуко Хоши /Shizuko Hoshi/
Описание: Майкл – американец японского происхождения, работающий автомехаником. Он раздираем противоречиями между суровым традиционным воспитанием и сильными мечтами и желаниями. Тайно влюбленный в соседку, сексуальную китаянку Лори, Майкл сдерживает свое желание и мечтает об их воссоединении. Однако когда он неожиданно знакомится с таинственной Дарси в местном ночном клубе, он встает перед выбором: рискнуть назначить свидание обольстительной незнакомке или продолжать тешить себя призрачными мечтами о Лори…
Доп. информация: Фильм предоставил SUPERDVD01

Сэмпл: http://yadi.sk/i/Qx9UDcyUubtCK
Качество видео: DVDRip
Формат видео: AVI
Видео: 704x384 (1.83:1), 23.976 fps, DivX MPEG-4 Low-Motion ~1001 kbps avg, 0.15 bit/pixel
Аудио: 48 kHz, MPEG Layer 3, 2 ch, ~128.00 kbps avg

MediaInfo

Шарлотта иногда - Charlotte Sometimes (by Edich2).avi
Format : AVI
Format/Info : Audio Video Interleave
File size : 698 MiB
Duration : 1 h 25 min
Overall bit rate : 1 139 kb/s
Movie name : Шарлотта иногда - Charlotte Sometimes (by Edich2)
Director : by SUPERDVD01
Writing application : Nandub v1.0rc2
Copyright : Edich2
Comment :
Video
ID : 0
Format : MPEG-4 Visual
Codec ID : DIV3
Codec ID/Hint : DivX 3 Low
Duration : 1 h 25 min
Bit rate : 1 002 kb/s
Width : 704 pixels
Height : 384 pixels
Display aspect ratio : 1.85:1
Frame rate : 23.976 FPS
Color space : YUV
Chroma subsampling : 4:2:0
Bit depth : 8 bits
Compression mode : Lossy
Bits/(Pixel*Frame) : 0.155
Stream size : 614 MiB (88%)
Audio
ID : 1
Format : MPEG Audio
Format version : Version 1
Format profile : Layer 3
Codec ID : 55
Codec ID/Hint : MP3
Duration : 1 h 25 min
Bit rate mode : Constant
Bit rate : 128 kb/s
Channel(s) : 2 channels
Sampling rate : 48.0 kHz
Compression mode : Lossy
Stream size : 78.5 MiB (11%)
Alignment : Split accross interleaves
Interleave, duration : 42 ms (1.00 video frame)
Interleave, preload duratio : 451 ms

Скриншоты


[ru-zerkalo.org]_t_5275480
Torrent: Registered ·  [ 2019-09-22 19:03 ] ·  0f17e5fbcbe08688d42d86a53b322eb30f6fd59f

14 KB

Status: checked
Completed: 0 times
Size: 698 MB
Rating: 
(Votes: 0)
Say thanks: 0  Thanks
 
Похожие темы
[Profile] [PM]
Display posts from previous:    
Reply to topic

The time now is: Today 07:39

All times are GMT + 7 Hours



You cannot post new topics in this forum
You cannot reply to topics in this forum
You cannot edit your posts in this forum
You cannot delete your posts in this forum
You cannot vote in polls in this forum
You cannot attach files in this forum
You can download files in this forum