Register · 
Username: Password:
 ·  Forgot password?

Путешествие по национальным паркам в 3Д / National Parks Adventure 3D (Грег МакГилливрэй / Greg MacGillivray) [2016, документальный, видовой, Blu-Ray Disc, (Custom)] BD3D

Reply to topic
DL-List and Torrent activity [Update пиров]
Size:  19.15 GB   |    Registered:  16 days   |    Completed:  0 times

Seeder not seen: Never

 
   
 
 
 
Author Message

Andrew1225 ®

Gender:

Longevity: 6 years

Posts: 17178

Post 06-Oct-2019 16:07

[Quote]

Путешествие по национальным паркам 3D / National Parks Adventure 3D
Год выпуска: 2016
Страна: США
Жанр: документальный, видовой
Продолжительность: 00:43:27
Перевод: Любительский одноголосый закадровый (NoNamed) (перевод любительский - Ash61)
Субтитры: Английские
Режиссер: Грег МакГилливрэй / Greg MacGillivray
Текст читает: Роберт Редфорд
Описание: Вместе с легендарным скалолазом Конрадом Анкером, фотографом Максом Лоу и художницей Рейчел Пол зрители совершат невероятное путешествие сразу по 30 национальным паркам Северной Америки. Они перенесутся на дно Гранд Каньона и попробуют подняться на скалу Башня Дьявола, прогуляются под кронами гигантских секвой парка Редвуд и увернутся от струй гейзеров Йеллоустона, встретят аллигаторов на мангровых болотах долины Эверглейдс и поучаствуют в медвежьей рыбалке во время нереста лосося на Аляске.
Дополнительная информация по релизу: Диск пересобран мною.
Большое спасибо Ash61 за перевод и за DTS-HD 7.1 специально собранный для этого релиза! BD3D от maxima0104.
Воспроизведение проверено на PowerDVD и на железном плеере Samsung 3D HT-J7750W. Диск воспроизводится как в 3D так и в 2D
Меню: Есть
Качество: Blu-Ray Disc
Контейнер: ISO
Формат 3D: Blu-ray 3D
Видео: MPEG-4 AVC Video 21882 kbps 1080p / 23,976 fps / 16:9 / High Profile 4.1
Видео: MPEG-4 MVC Video 15848 kbps
Аудио: Dolby Atmos 7.1 / DTS-HD 7.1
Аудио 1: English Dolby Atmos/TrueHD 7.1 4361 kbps / 48 kHz / 24-bit (AC3 Core: 5.1-EX / 48 kHz / 640 kbps)
Аудио 2: Русский DTS-HD 7.1 4879 kbps / 48 kHz / 24-bit (DTS Core: 5.1 / 48 kHz / 1509 kbps / 24-bit)
Аудио 3: Dolby Digital French 5.1 448 kbps / 48 kHz
Аудио 4: Dolby Digital Spanish 5.1 448 kbps / 48 kHz
Субтитры: English

Скриншоты

Бонусы

Bears Catching Salmon in Alaska (1080p, 1:24)
The Most Important Camping Trip in U.S. History (1080p, 1:50)
Biking in Moab (1080p, 2:55)
Climbing Penguins (1080p, 3:09)
Filming with Greg MacGillivray (1080p, 2:17)
Featurette (1080p, 3:56)
Pictured Rocks Michigan (1080p, 4:11)
Robert Redford on the Parks (1080p, 1:53)
GoUSA TV Trailer (1080p, 0:32)
National Parks Trailer (1080p, 2:00)

BDInfo

Disc Title: National Parks Adventure 3D
Disc Size: 20 565 368 849 bytes
Protection: AACS
BD-Java: No
Extras: Blu-ray 3D
BDInfo: 0.5.8
********************
PLAYLIST: 00021.MPLS
********************
Total   Video
Title                                                           Codec   Length  Movie Size      Disc Size       Bitrate Bitrate Main Audio Track                          Secondary Audio Track
-----                                                           ------  ------- --------------  --------------  ------- ------- ------------------                        ---------------------
00021.MPLS                                                      AVC     0:43:27 17 029 899 648  20 565 368 849  52,25   21,88   Dolby TrueHD 7.1 4361Kbps (48kHz/24-bit)
DISC INFO:
Disc Title:     National Parks Adventure 3D
Disc Size:      20 565 368 849 bytes
Protection:     AACS
BD-Java:        No
Extras:         Blu-ray 3D
BDInfo:         0.5.8
PLAYLIST REPORT:
Name:                   00021.MPLS
Length:                 0:43:27.688 (h:m:s.ms)
Size:                   17 029 899 648 bytes
Total Bitrate:          52,25 Mbps
VIDEO:
Codec                   Bitrate             Description
-----                   -------             -----------
MPEG-4 AVC Video        21882 kbps          1080p / 23,976 fps / 16:9 / High Profile 4.1
MPEG-4 MVC Video        15848 kbps
AUDIO:
Codec                           Language        Bitrate         Description
-----                           --------        -------         -----------
Dolby TrueHD Audio              English         4361 kbps       7.1 / 48 kHz / 4361 kbps / 24-bit (AC3 Embedded: 5.1-EX / 48 kHz / 640 kbps)
DTS-HD Master Audio             Russian         4879 kbps       7.1 / 48 kHz / 4879 kbps / 24-bit (DTS Core: 5.1 / 48 kHz / 1509 kbps / 24-bit)
Dolby Digital Audio             French          448 kbps        5.1 / 48 kHz / 448 kbps
Dolby Digital Audio             Spanish         448 kbps        5.1 / 48 kHz / 448 kbps
SUBTITLES:
Codec                           Language        Bitrate         Description
-----                           --------        -------         -----------
Presentation Graphics           English         20,578 kbps
FILES:
Name            Time In         Length          Size            Total Bitrate
----            -------         ------          ----            -------------
00015.SSIF      0:00:00.000     0:43:26.645     17 028 793 728  52 262
00002.SSIF      0:43:26.645     0:00:01.042     1 105 920       8 485
CHAPTERS:
Number          Time In         Length          Avg Video Rate  Max 1-Sec Rate  Max 1-Sec Time  Max 5-Sec Rate  Max 5-Sec Time  Max 10Sec Rate  Max 10Sec Time  Avg Frame Size  Max Frame Size  Max Frame Time
------          -------         ------          --------------  --------------  --------------  --------------  --------------  --------------  --------------  --------------  --------------  --------------
1               0:00:00.000     0:03:46.351     17 094 kbps     28 802 kbps     00:03:17.488    26 578 kbps     00:03:13.484    26 476 kbps     00:03:08.521    89 106 bytes    514 035 bytes   00:03:46.351
2               0:03:46.351     0:02:39.659     23 018 kbps     29 326 kbps     00:05:52.477    26 962 kbps     00:05:52.477    26 596 kbps     00:05:49.557    120 007 bytes   593 692 bytes   00:05:36.586
3               0:06:26.010     0:02:08.545     23 143 kbps     30 330 kbps     00:08:21.167    27 040 kbps     00:08:17.288    26 728 kbps     00:08:12.241    120 657 bytes   493 414 bytes   00:07:59.479
4               0:08:34.555     0:01:57.659     23 897 kbps     29 856 kbps     00:10:12.445    27 015 kbps     00:10:08.441    26 662 kbps     00:10:01.475    124 589 bytes   591 053 bytes   00:10:05.479
5               0:10:32.214     0:05:18.026     22 890 kbps     30 135 kbps     00:11:35.569    27 082 kbps     00:11:31.565    26 677 kbps     00:13:04.283    119 338 bytes   633 011 bytes   00:13:46.742
6               0:15:50.240     0:02:55.884     22 010 kbps     30 000 kbps     00:17:44.563    27 055 kbps     00:17:44.563    26 642 kbps     00:17:41.685    114 725 bytes   628 892 bytes   00:17:35.679
7               0:18:46.125     0:04:33.398     23 466 kbps     29 565 kbps     00:20:59.007    27 116 kbps     00:20:21.970    26 731 kbps     00:20:16.965    122 359 bytes   603 923 bytes   00:19:26.790
8               0:23:19.523     0:01:05.648     25 130 kbps     28 184 kbps     00:24:09.239    26 638 kbps     00:24:10.157    26 418 kbps     00:24:05.360    131 017 bytes   374 840 bytes   00:24:15.120
9               0:24:25.172     0:05:34.125     24 361 kbps     29 523 kbps     00:29:58.296    26 893 kbps     00:28:09.687    26 640 kbps     00:28:59.070    127 005 bytes   598 658 bytes   00:25:33.657
10              0:29:59.297     0:03:37.300     22 878 kbps     28 367 kbps     00:33:35.638    26 683 kbps     00:31:46.904    26 486 kbps     00:33:26.629    119 253 bytes   566 210 bytes   00:30:16.314
11              0:33:36.597     0:02:25.019     19 821 kbps     27 682 kbps     00:33:46.649    26 428 kbps     00:33:48.067    26 351 kbps     00:33:48.067    103 366 bytes   575 545 bytes   00:33:47.608
12              0:36:01.617     0:03:07.604     23 531 kbps     28 141 kbps     00:37:20.446    26 620 kbps     00:37:16.442    26 422 kbps     00:37:11.437    122 650 bytes   492 275 bytes   00:38:18.045
13              0:39:09.221     0:03:28.958     17 754 kbps     28 620 kbps     00:41:54.136    26 803 kbps     00:40:12.910    26 540 kbps     00:40:07.905    92 563 bytes    608 010 bytes   00:40:16.288
14              0:42:38.180     0:00:49.507     8 215 kbps      14 631 kbps     00:42:51.235    12 430 kbps     00:42:51.277    11 871 kbps     00:42:47.273    42 017 bytes    287 581 bytes   00:43:14.800
STREAM DIAGNOSTICS:
File            PID             Type            Codec           Language                Seconds                 Bitrate                 Bytes           Packets
----            ---             ----            -----           --------                --------------          --------------          -------------   -----
00015.SSIF      4114 (0x1012)   0x20            MVC                                     2607,605                15 847                  5 165 499 978   28 114 829
00015.SSIF      4113 (0x1011)   0x1B            AVC                                     2607,605                21 882                  7 132 426 698   38 801 036
00015.SSIF      4352 (0x1100)   0x83            TrueHD          eng (English)           2607,605                5 002                   1 630 254 752   10 836 691
00015.SSIF      4353 (0x1101)   0x86            DTS-HD MA       rus (Russian)           2607,605                4 879                   1 590 305 392   9 049 509
00015.SSIF      4354 (0x1102)   0x81            AC3             fra (French)            2607,605                448                     145 972 736     814 580
00015.SSIF      4355 (0x1103)   0x81            AC3             spa (Spanish)           2607,605                448                     145 972 736     814 580
00015.SSIF      4608 (0x1200)   0x90            PGS             eng (English)           2607,605                21                      6 707 712       40 653
00002.SSIF      4114 (0x1012)   0x20            MVC                                     0,959                   4 325                   518 634         2 839
00002.SSIF      4113 (0x1011)   0x1B            AVC                                     0,959                   4 325                   518 634         2 838
QUICK SUMMARY:
Disc Title: National Parks Adventure 3D
Disc Size: 20 565 368 849 bytes
Protection: AACS
BD-Java: No
Playlist: 00021.MPLS
Size: 17 029 899 648 bytes
Length: 0:43:27.688
Total Bitrate: 52,25 Mbps
Video: MPEG-4 AVC Video / 21882 kbps / 1080p / 23,976 fps / 16:9 / High Profile 4.1
Video: MPEG-4 MVC Video / 15848 kbps /
Audio: English / Dolby TrueHD Audio / 7.1 / 48 kHz / 4361 kbps / 24-bit (AC3 Embedded: 5.1-EX / 48 kHz / 640 kbps)
Audio: Russian / DTS-HD Master Audio / 7.1 / 48 kHz / 4879 kbps / 24-bit (DTS Core: 5.1 / 48 kHz / 1509 kbps / 24-bit)
Audio: French / Dolby Digital Audio / 5.1 / 48 kHz / 448 kbps
Audio: Spanish / Dolby Digital Audio / 5.1 / 48 kHz / 448 kbps
Subtitle: English / 20,578 kbps
********************
PLAYLIST: 00022.MPLS
********************
Total   Video
Title                                                           Codec   Length  Movie Size      Disc Size       Bitrate Bitrate Main Audio Track                          Secondary Audio Track
-----                                                           ------  ------- --------------  --------------  ------- ------- ------------------                        ---------------------
00022.MPLS                                                      AVC     0:43:27 17 029 899 648  20 565 368 849  52,25   21,88   Dolby TrueHD 7.1 4361Kbps (48kHz/24-bit)
DISC INFO:
Disc Title:     National Parks Adventure 3D
Disc Size:      20 565 368 849 bytes
Protection:     AACS
BD-Java:        No
Extras:         Blu-ray 3D
BDInfo:         0.5.8
PLAYLIST REPORT:
Name:                   00022.MPLS
Length:                 0:43:27.688 (h:m:s.ms)
Size:                   17 029 899 648 bytes
Total Bitrate:          52,25 Mbps
VIDEO:
Codec                   Bitrate             Description
-----                   -------             -----------
MPEG-4 AVC Video        21882 kbps          1080p / 23,976 fps / 16:9 / High Profile 4.1
MPEG-4 MVC Video        15848 kbps
AUDIO:
Codec                           Language        Bitrate         Description
-----                           --------        -------         -----------
Dolby TrueHD Audio              English         4361 kbps       7.1 / 48 kHz / 4361 kbps / 24-bit (AC3 Embedded: 5.1-EX / 48 kHz / 640 kbps)
DTS-HD Master Audio             Russian         4879 kbps       7.1 / 48 kHz / 4879 kbps / 24-bit (DTS Core: 5.1 / 48 kHz / 1509 kbps / 24-bit)
Dolby Digital Audio             French          448 kbps        5.1 / 48 kHz / 448 kbps
Dolby Digital Audio             Spanish         448 kbps        5.1 / 48 kHz / 448 kbps
SUBTITLES:
Codec                           Language        Bitrate         Description
-----                           --------        -------         -----------
Presentation Graphics           English         20,578 kbps
FILES:
Name            Time In         Length          Size            Total Bitrate
----            -------         ------          ----            -------------
00015.SSIF      0:00:00.000     0:43:26.645     17 028 793 728  52 262
00002.SSIF      0:43:26.645     0:00:01.042     1 105 920       8 485
CHAPTERS:
Number          Time In         Length          Avg Video Rate  Max 1-Sec Rate  Max 1-Sec Time  Max 5-Sec Rate  Max 5-Sec Time  Max 10Sec Rate  Max 10Sec Time  Avg Frame Size  Max Frame Size  Max Frame Time
------          -------         ------          --------------  --------------  --------------  --------------  --------------  --------------  --------------  --------------  --------------  --------------
1               0:00:00.000     0:03:46.351     17 094 kbps     28 802 kbps     00:03:17.488    26 578 kbps     00:03:13.484    26 476 kbps     00:03:08.521    89 106 bytes    514 035 bytes   00:03:46.351
2               0:03:46.351     0:02:39.659     23 018 kbps     29 326 kbps     00:05:52.477    26 962 kbps     00:05:52.477    26 596 kbps     00:05:49.557    120 007 bytes   593 692 bytes   00:05:36.586
3               0:06:26.010     0:02:08.545     23 143 kbps     30 330 kbps     00:08:21.167    27 040 kbps     00:08:17.288    26 728 kbps     00:08:12.241    120 657 bytes   493 414 bytes   00:07:59.479
4               0:08:34.555     0:01:57.659     23 897 kbps     29 856 kbps     00:10:12.445    27 015 kbps     00:10:08.441    26 662 kbps     00:10:01.475    124 589 bytes   591 053 bytes   00:10:05.479
5               0:10:32.214     0:05:18.026     22 890 kbps     30 135 kbps     00:11:35.569    27 082 kbps     00:11:31.565    26 677 kbps     00:13:04.283    119 338 bytes   633 011 bytes   00:13:46.742
6               0:15:50.240     0:02:55.884     22 010 kbps     30 000 kbps     00:17:44.563    27 055 kbps     00:17:44.563    26 642 kbps     00:17:41.685    114 725 bytes   628 892 bytes   00:17:35.679
7               0:18:46.125     0:04:33.398     23 466 kbps     29 565 kbps     00:20:59.007    27 116 kbps     00:20:21.970    26 731 kbps     00:20:16.965    122 359 bytes   603 923 bytes   00:19:26.790
8               0:23:19.523     0:01:05.648     25 130 kbps     28 184 kbps     00:24:09.239    26 638 kbps     00:24:10.157    26 418 kbps     00:24:05.360    131 017 bytes   374 840 bytes   00:24:15.120
9               0:24:25.172     0:05:34.125     24 361 kbps     29 523 kbps     00:29:58.296    26 893 kbps     00:28:09.687    26 640 kbps     00:28:59.070    127 005 bytes   598 658 bytes   00:25:33.657
10              0:29:59.297     0:03:37.300     22 878 kbps     28 367 kbps     00:33:35.638    26 683 kbps     00:31:46.904    26 486 kbps     00:33:26.629    119 253 bytes   566 210 bytes   00:30:16.314
11              0:33:36.597     0:02:25.019     19 821 kbps     27 682 kbps     00:33:46.649    26 428 kbps     00:33:48.067    26 351 kbps     00:33:48.067    103 366 bytes   575 545 bytes   00:33:47.608
12              0:36:01.617     0:03:07.604     23 531 kbps     28 141 kbps     00:37:20.446    26 620 kbps     00:37:16.442    26 422 kbps     00:37:11.437    122 650 bytes   492 275 bytes   00:38:18.045
13              0:39:09.221     0:03:28.958     17 754 kbps     28 620 kbps     00:41:54.136    26 803 kbps     00:40:12.910    26 540 kbps     00:40:07.905    92 563 bytes    608 010 bytes   00:40:16.288
14              0:42:38.180     0:00:48.465     8 306 kbps      14 631 kbps     00:42:51.235    12 430 kbps     00:42:51.277    11 871 kbps     00:42:47.273    43 338 bytes    287 581 bytes   00:43:14.800
15              0:43:26.645     0:00:01.042     4 021 kbps      4 136 kbps      00:43:26.645    0 kbps          00:00:00.000    0 kbps          00:00:00.000    10 695 bytes    119 910 bytes   00:43:27.062
STREAM DIAGNOSTICS:
File            PID             Type            Codec           Language                Seconds                 Bitrate                 Bytes           Packets
----            ---             ----            -----           --------                --------------          --------------          -------------   -----
00015.SSIF      4114 (0x1012)   0x20            MVC                                     2607,605                15 847                  5 165 499 978   28 114 829
00015.SSIF      4113 (0x1011)   0x1B            AVC                                     2607,605                21 882                  7 132 426 698   38 801 036
00015.SSIF      4352 (0x1100)   0x83            TrueHD          eng (English)           2607,605                5 002                   1 630 254 752   10 836 691
00015.SSIF      4353 (0x1101)   0x86            DTS-HD MA       rus (Russian)           2607,605                4 879                   1 590 305 392   9 049 509
00015.SSIF      4354 (0x1102)   0x81            AC3             fra (French)            2607,605                448                     145 972 736     814 580
00015.SSIF      4355 (0x1103)   0x81            AC3             spa (Spanish)           2607,605                448                     145 972 736     814 580
00015.SSIF      4608 (0x1200)   0x90            PGS             eng (English)           2607,605                21                      6 707 712       40 653
00002.SSIF      4114 (0x1012)   0x20            MVC                                     0,959                   4 325                   518 634         2 839
00002.SSIF      4113 (0x1011)   0x1B            AVC                                     0,959                   4 325                   518 634         2 838
QUICK SUMMARY:
Disc Title: National Parks Adventure 3D
Disc Size: 20 565 368 849 bytes
Protection: AACS
BD-Java: No
Playlist: 00022.MPLS
Size: 17 029 899 648 bytes
Length: 0:43:27.688
Total Bitrate: 52,25 Mbps
Video: MPEG-4 AVC Video / 21882 kbps / 1080p / 23,976 fps / 16:9 / High Profile 4.1
Video: MPEG-4 MVC Video / 15848 kbps /
Audio: English / Dolby TrueHD Audio / 7.1 / 48 kHz / 4361 kbps / 24-bit (AC3 Embedded: 5.1-EX / 48 kHz / 640 kbps)
Audio: Russian / DTS-HD Master Audio / 7.1 / 48 kHz / 4879 kbps / 24-bit (DTS Core: 5.1 / 48 kHz / 1509 kbps / 24-bit)
Audio: French / Dolby Digital Audio / 5.1 / 48 kHz / 448 kbps
Audio: Spanish / Dolby Digital Audio / 5.1 / 48 kHz / 448 kbps
Subtitle: English / 20,578 kbps
********************
PLAYLIST: 00037.MPLS
********************
Total   Video
Title                                                           Codec   Length  Movie Size      Disc Size       Bitrate Bitrate Main Audio Track                          Secondary Audio Track
-----                                                           ------  ------- --------------  --------------  ------- ------- ------------------                        ---------------------
00037.MPLS                                                      AVC     0:04:11 597 995 520     20 565 368 849  19,04   17,93   DD AC3 2.0 192Kbps
DISC INFO:
Disc Title:     National Parks Adventure 3D
Disc Size:      20 565 368 849 bytes
Protection:     AACS
BD-Java:        No
Extras:         Blu-ray 3D
BDInfo:         0.5.8
PLAYLIST REPORT:
Name:                   00037.MPLS
Length:                 0:04:11.292 (h:m:s.ms)
Size:                   597 995 520 bytes
Total Bitrate:          19,04 Mbps
VIDEO:
Codec                   Bitrate             Description
-----                   -------             -----------
MPEG-4 AVC Video        17934 kbps          1080p / 23,976 fps / 16:9 / High Profile 4.1
AUDIO:
Codec                           Language        Bitrate         Description
-----                           --------        -------         -----------
Dolby Digital Audio             English         192 kbps        2.0 / 48 kHz / 192 kbps / DN -4dB
FILES:
Name            Time In         Length          Size            Total Bitrate
----            -------         ------          ----            -------------
00007.M2TS      0:00:00.000     0:04:10.291     597 725 184     19 105
00001.M2TS      0:04:10.291     0:00:01.000     270 336         2 161
CHAPTERS:
Number          Time In         Length          Avg Video Rate  Max 1-Sec Rate  Max 1-Sec Time  Max 5-Sec Rate  Max 5-Sec Time  Max 10Sec Rate  Max 10Sec Time  Avg Frame Size  Max Frame Size  Max Frame Time
------          -------         ------          --------------  --------------  --------------  --------------  --------------  --------------  --------------  --------------  --------------  --------------
1               0:00:00.000     0:04:10.291     17 998 kbps     38 561 kbps     00:00:51.634    36 517 kbps     00:00:48.423    32 788 kbps     00:03:18.072    93 816 bytes    396 935 bytes   00:00:42.250
2               0:04:10.291     0:00:01.000     1 996 kbps      0 kbps          00:00:00.000    0 kbps          00:00:00.000    0 kbps          00:00:00.000    10 860 bytes    182 469 bytes   00:04:11.250
STREAM DIAGNOSTICS:
File            PID             Type            Codec           Language                Seconds                 Bitrate                 Bytes           Packets
----            ---             ----            -----           --------                --------------          --------------          -------------   -----
00007.M2TS      4113 (0x1011)   0x1B            AVC                                     250,125                 18 010                  563 085 483     3 063 735
00007.M2TS      4352 (0x1100)   0x81            AC3             eng (English)           250,125                 200                     6 246 144       40 665
00001.M2TS      4113 (0x1011)   0x1B            AVC                                     0,834                   2 405                   250 731         1 368
QUICK SUMMARY:
Disc Title: National Parks Adventure 3D
Disc Size: 20 565 368 849 bytes
Protection: AACS
BD-Java: No
Playlist: 00037.MPLS
Size: 597 995 520 bytes
Length: 0:04:11.292
Total Bitrate: 19,04 Mbps
Video: MPEG-4 AVC Video / 17934 kbps / 1080p / 23,976 fps / 16:9 / High Profile 4.1
Audio: English / Dolby Digital Audio / 2.0 / 48 kHz / 192 kbps / DN -4dB
********************
PLAYLIST: 00036.MPLS
********************
Total   Video
Title                                                           Codec   Length  Movie Size      Disc Size       Bitrate Bitrate Main Audio Track                          Secondary Audio Track
-----                                                           ------  ------- --------------  --------------  ------- ------- ------------------                        ---------------------
00036.MPLS                                                      AVC     0:03:56 562 569 216     20 565 368 849  19,02   17,93   DD AC3 2.0 192Kbps
DISC INFO:
Disc Title:     National Parks Adventure 3D
Disc Size:      20 565 368 849 bytes
Protection:     AACS
BD-Java:        No
Extras:         Blu-ray 3D
BDInfo:         0.5.8
PLAYLIST REPORT:
Name:                   00036.MPLS
Length:                 0:03:56.653 (h:m:s.ms)
Size:                   562 569 216 bytes
Total Bitrate:          19,02 Mbps
VIDEO:
Codec                   Bitrate             Description
-----                   -------             -----------
MPEG-4 AVC Video        17926 kbps          1080p / 23,976 fps / 16:9 / High Profile 4.1
AUDIO:
Codec                           Language        Bitrate         Description
-----                           --------        -------         -----------
Dolby Digital Audio             English         192 kbps        2.0 / 48 kHz / 192 kbps / DN -4dB
FILES:
Name            Time In         Length          Size            Total Bitrate
----            -------         ------          ----            -------------
00006.M2TS      0:00:00.000     0:03:55.652     562 298 880     19 089
00001.M2TS      0:03:55.652     0:00:01.000     270 336         2 161
CHAPTERS:
Number          Time In         Length          Avg Video Rate  Max 1-Sec Rate  Max 1-Sec Time  Max 5-Sec Rate  Max 5-Sec Time  Max 10Sec Rate  Max 10Sec Time  Avg Frame Size  Max Frame Size  Max Frame Time
------          -------         ------          --------------  --------------  --------------  --------------  --------------  --------------  --------------  --------------  --------------  --------------
1               0:00:00.000     0:03:55.652     17 994 kbps     39 173 kbps     00:03:05.643    28 400 kbps     00:00:48.214    25 326 kbps     00:00:43.209    93 795 bytes    483 736 bytes   00:00:58.099
2               0:03:55.652     0:00:01.000     1 996 kbps      0 kbps          00:00:00.000    0 kbps          00:00:00.000    0 kbps          00:00:00.000    10 860 bytes    182 469 bytes   00:03:56.611
STREAM DIAGNOSTICS:
File            PID             Type            Codec           Language                Seconds                 Bitrate                 Bytes           Packets
----            ---             ----            -----           --------                --------------          --------------          -------------   -----
00006.M2TS      4113 (0x1011)   0x1B            AVC                                     235,485                 18 006                  530 032 616     2 883 918
00006.M2TS      4352 (0x1100)   0x81            AC3             eng (English)           235,485                 192                     5 654 784       36 815
00001.M2TS      4113 (0x1011)   0x1B            AVC                                     0,834                   2 405                   250 731         1 368
QUICK SUMMARY:
Disc Title: National Parks Adventure 3D
Disc Size: 20 565 368 849 bytes
Protection: AACS
BD-Java: No
Playlist: 00036.MPLS
Size: 562 569 216 bytes
Length: 0:03:56.653
Total Bitrate: 19,02 Mbps
Video: MPEG-4 AVC Video / 17926 kbps / 1080p / 23,976 fps / 16:9 / High Profile 4.1
Audio: English / Dolby Digital Audio / 2.0 / 48 kHz / 192 kbps / DN -4dB
********************
PLAYLIST: 00034.MPLS
********************
Total   Video
Title                                                           Codec   Length  Movie Size      Disc Size       Bitrate Bitrate Main Audio Track                          Secondary Audio Track
-----                                                           ------  ------- --------------  --------------  ------- ------- ------------------                        ---------------------
00034.MPLS                                                      AVC     0:03:09 450 594 816     20 565 368 849  19,00   17,91   DD AC3 2.0 192Kbps
DISC INFO:
Disc Title:     National Parks Adventure 3D
Disc Size:      20 565 368 849 bytes
Protection:     AACS
BD-Java:        No
Extras:         Blu-ray 3D
BDInfo:         0.5.8
PLAYLIST REPORT:
Name:                   00034.MPLS
Length:                 0:03:09.731 (h:m:s.ms)
Size:                   450 594 816 bytes
Total Bitrate:          19,00 Mbps
VIDEO:
Codec                   Bitrate             Description
-----                   -------             -----------
MPEG-4 AVC Video        17909 kbps          1080p / 23,976 fps / 16:9 / High Profile 4.1
AUDIO:
Codec                           Language        Bitrate         Description
-----                           --------        -------         -----------
Dolby Digital Audio             English         192 kbps        2.0 / 48 kHz / 192 kbps / DN -4dB
FILES:
Name            Time In         Length          Size            Total Bitrate
----            -------         ------          ----            -------------
00011.M2TS      0:00:00.000     0:03:08.730     450 324 480     19 089
00001.M2TS      0:03:08.730     0:00:01.000     270 336         2 161
CHAPTERS:
Number          Time In         Length          Avg Video Rate  Max 1-Sec Rate  Max 1-Sec Time  Max 5-Sec Rate  Max 5-Sec Time  Max 10Sec Rate  Max 10Sec Time  Avg Frame Size  Max Frame Size  Max Frame Time
------          -------         ------          --------------  --------------  --------------  --------------  --------------  --------------  --------------  --------------  --------------  --------------
1               0:00:00.000     0:03:08.730     17 993 kbps     35 774 kbps     00:00:10.844    31 539 kbps     00:00:09.217    29 229 kbps     00:00:08.341    93 789 bytes    368 009 bytes   00:00:38.663
2               0:03:08.730     0:00:01.000     1 996 kbps      0 kbps          00:00:00.000    0 kbps          00:00:00.000    0 kbps          00:00:00.000    10 860 bytes    182 469 bytes   00:03:09.689
STREAM DIAGNOSTICS:
File            PID             Type            Codec           Language                Seconds                 Bitrate                 Bytes           Packets
----            ---             ----            -----           --------                --------------          --------------          -------------   -----
00011.M2TS      4113 (0x1011)   0x1B            AVC                                     188,563                 18 009                  424 486 849     2 309 626
00011.M2TS      4352 (0x1100)   0x81            AC3             eng (English)           188,563                 192                     4 528 896       29 485
00001.M2TS      4113 (0x1011)   0x1B            AVC                                     0,834                   2 405                   250 731         1 368
QUICK SUMMARY:
Disc Title: National Parks Adventure 3D
Disc Size: 20 565 368 849 bytes
Protection: AACS
BD-Java: No
Playlist: 00034.MPLS
Size: 450 594 816 bytes
Length: 0:03:09.731
Total Bitrate: 19,00 Mbps
Video: MPEG-4 AVC Video / 17909 kbps / 1080p / 23,976 fps / 16:9 / High Profile 4.1
Audio: English / Dolby Digital Audio / 2.0 / 48 kHz / 192 kbps / DN -4dB
********************
PLAYLIST: 00033.MPLS
********************
Total   Video
Title                                                           Codec   Length  Movie Size      Disc Size       Bitrate Bitrate Main Audio Track                          Secondary Audio Track
-----                                                           ------  ------- --------------  --------------  ------- ------- ------------------                        ---------------------
00033.MPLS                                                      AVC     0:02:55 416 237 568     20 565 368 849  19,00   17,91   DD AC3 2.0 192Kbps
DISC INFO:
Disc Title:     National Parks Adventure 3D
Disc Size:      20 565 368 849 bytes
Protection:     AACS
BD-Java:        No
Extras:         Blu-ray 3D
BDInfo:         0.5.8
PLAYLIST REPORT:
Name:                   00033.MPLS
Length:                 0:02:55.300 (h:m:s.ms)
Size:                   416 237 568 bytes
Total Bitrate:          19,00 Mbps
VIDEO:
Codec                   Bitrate             Description
-----                   -------             -----------
MPEG-4 AVC Video        17905 kbps          1080p / 23,976 fps / 16:9 / High Profile 4.1
AUDIO:
Codec                           Language        Bitrate         Description
-----                           --------        -------         -----------
Dolby Digital Audio             English         192 kbps        2.0 / 48 kHz / 192 kbps / DN -4dB
FILES:
Name            Time In         Length          Size            Total Bitrate
----            -------         ------          ----            -------------
00009.M2TS      0:00:00.000     0:02:54.299     415 967 232     19 092
00001.M2TS      0:02:54.299     0:00:01.000     270 336         2 161
CHAPTERS:
Number          Time In         Length          Avg Video Rate  Max 1-Sec Rate  Max 1-Sec Time  Max 5-Sec Rate  Max 5-Sec Time  Max 10Sec Rate  Max 10Sec Time  Avg Frame Size  Max Frame Size  Max Frame Time
------          -------         ------          --------------  --------------  --------------  --------------  --------------  --------------  --------------  --------------  --------------  --------------
1               0:00:00.000     0:02:54.299     17 997 kbps     34 036 kbps     00:00:10.927    30 271 kbps     00:00:09.134    26 949 kbps     00:00:05.672    93 803 bytes    358 501 bytes   00:00:40.081
2               0:02:54.299     0:00:01.000     1 996 kbps      0 kbps          00:00:00.000    0 kbps          00:00:00.000    0 kbps          00:00:00.000    10 860 bytes    182 469 bytes   00:02:55.258
STREAM DIAGNOSTICS:
File            PID             Type            Codec           Language                Seconds                 Bitrate                 Bytes           Packets
----            ---             ----            -----           --------                --------------          --------------          -------------   -----
00009.M2TS      4113 (0x1011)   0x1B            AVC                                     174,132                 18 014                  392 096 871     2 133 396
00009.M2TS      4352 (0x1100)   0x81            AC3             eng (English)           174,132                 192                     4 182 528       27 230
00001.M2TS      4113 (0x1011)   0x1B            AVC                                     0,834                   2 405                   250 731         1 368
QUICK SUMMARY:
Disc Title: National Parks Adventure 3D
Disc Size: 20 565 368 849 bytes
Protection: AACS
BD-Java: No
Playlist: 00033.MPLS
Size: 416 237 568 bytes
Length: 0:02:55.300
Total Bitrate: 19,00 Mbps
Video: MPEG-4 AVC Video / 17905 kbps / 1080p / 23,976 fps / 16:9 / High Profile 4.1
Audio: English / Dolby Digital Audio / 2.0 / 48 kHz / 192 kbps / DN -4dB
********************
PLAYLIST: 00035.MPLS
********************
Total   Video
Title                                                           Codec   Length  Movie Size      Disc Size       Bitrate Bitrate Main Audio Track                          Secondary Audio Track
-----                                                           ------  ------- --------------  --------------  ------- ------- ------------------                        ---------------------
00035.MPLS                                                      AVC     0:02:17 325 349 376     20 565 368 849  18,99   17,88   DD AC3 2.0 192Kbps
DISC INFO:
Disc Title:     National Parks Adventure 3D
Disc Size:      20 565 368 849 bytes
Protection:     AACS
BD-Java:        No
Extras:         Blu-ray 3D
BDInfo:         0.5.8
PLAYLIST REPORT:
Name:                   00035.MPLS
Length:                 0:02:17.053 (h:m:s.ms)
Size:                   325 349 376 bytes
Total Bitrate:          18,99 Mbps
VIDEO:
Codec                   Bitrate             Description
-----                   -------             -----------
MPEG-4 AVC Video        17881 kbps          1080p / 23,976 fps / 16:9 / High Profile 4.1
AUDIO:
Codec                           Language        Bitrate         Description
-----                           --------        -------         -----------
Dolby Digital Audio             English         192 kbps        2.0 / 48 kHz / 192 kbps / DN -4dB
FILES:
Name            Time In         Length          Size            Total Bitrate
----            -------         ------          ----            -------------
00012.M2TS      0:00:00.000     0:02:16.052     325 079 040     19 115
00001.M2TS      0:02:16.052     0:00:01.000     270 336         2 161
CHAPTERS:
Number          Time In         Length          Avg Video Rate  Max 1-Sec Rate  Max 1-Sec Time  Max 5-Sec Rate  Max 5-Sec Time  Max 10Sec Rate  Max 10Sec Time  Avg Frame Size  Max Frame Size  Max Frame Time
------          -------         ------          --------------  --------------  --------------  --------------  --------------  --------------  --------------  --------------  --------------  --------------
1               0:00:00.000     0:02:16.052     17 998 kbps     39 222 kbps     00:01:28.171    32 436 kbps     00:01:26.377    26 171 kbps     00:00:05.130    93 803 bytes    481 851 bytes   00:01:26.419
2               0:02:16.052     0:00:01.000     1 996 kbps      0 kbps          00:00:00.000    0 kbps          00:00:00.000    0 kbps          00:00:00.000    10 860 bytes    182 469 bytes   00:02:17.011
STREAM DIAGNOSTICS:
File            PID             Type            Codec           Language                Seconds                 Bitrate                 Bytes           Packets
----            ---             ----            -----           --------                --------------          --------------          -------------   -----
00012.M2TS      4113 (0x1011)   0x1B            AVC                                     135,927                 18 014                  306 079 209     1 665 387
00012.M2TS      4352 (0x1100)   0x81            AC3             eng (English)           135,927                 206                     3 504 384       22 815
00001.M2TS      4113 (0x1011)   0x1B            AVC                                     0,834                   2 405                   250 731         1 368
QUICK SUMMARY:
Disc Title: National Parks Adventure 3D
Disc Size: 20 565 368 849 bytes
Protection: AACS
BD-Java: No
Playlist: 00035.MPLS
Size: 325 349 376 bytes
Length: 0:02:17.053
Total Bitrate: 18,99 Mbps
Video: MPEG-4 AVC Video / 17881 kbps / 1080p / 23,976 fps / 16:9 / High Profile 4.1
Audio: English / Dolby Digital Audio / 2.0 / 48 kHz / 192 kbps / DN -4dB
********************
PLAYLIST: 00040.MPLS
********************
Total   Video
Title                                                           Codec   Length  Movie Size      Disc Size       Bitrate Bitrate Main Audio Track                          Secondary Audio Track
-----                                                           ------  ------- --------------  --------------  ------- ------- ------------------                        ---------------------
00040.MPLS                                                      AVC     0:02:00 284 590 080     20 565 368 849  18,95   17,87   DD AC3 2.0 192Kbps
DISC INFO:
Disc Title:     National Parks Adventure 3D
Disc Size:      20 565 368 849 bytes
Protection:     AACS
BD-Java:        No
Extras:         Blu-ray 3D
BDInfo:         0.5.8
PLAYLIST REPORT:
Name:                   00040.MPLS
Length:                 0:02:00.120 (h:m:s.ms)
Size:                   284 590 080 bytes
Total Bitrate:          18,95 Mbps
VIDEO:
Codec                   Bitrate             Description
-----                   -------             -----------
MPEG-4 AVC Video        17866 kbps          1080p / 23,976 fps / 16:9 / High Profile 4.1
AUDIO:
Codec                           Language        Bitrate         Description
-----                           --------        -------         -----------
Dolby Digital Audio             English         192 kbps        2.0 / 48 kHz / 192 kbps
FILES:
Name            Time In         Length          Size            Total Bitrate
----            -------         ------          ----            -------------
00022.M2TS      0:00:00.000     0:01:59.119     284 319 744     19 095
00001.M2TS      0:01:59.119     0:00:01.000     270 336         2 161
CHAPTERS:
Number          Time In         Length          Avg Video Rate  Max 1-Sec Rate  Max 1-Sec Time  Max 5-Sec Rate  Max 5-Sec Time  Max 10Sec Rate  Max 10Sec Time  Avg Frame Size  Max Frame Size  Max Frame Time
------          -------         ------          --------------  --------------  --------------  --------------  --------------  --------------  --------------  --------------  --------------  --------------
1               0:00:00.000     0:01:59.119     17 999 kbps     41 885 kbps     00:01:01.186    34 664 kbps     00:00:58.767    29 561 kbps     00:01:21.289    93 807 bytes    638 604 bytes   00:01:31.257
2               0:01:59.119     0:00:01.000     1 996 kbps      0 kbps          00:00:00.000    0 kbps          00:00:00.000    0 kbps          00:00:00.000    10 860 bytes    182 469 bytes   00:02:00.078
STREAM DIAGNOSTICS:
File            PID             Type            Codec           Language                Seconds                 Bitrate                 Bytes           Packets
----            ---             ----            -----           --------                --------------          --------------          -------------   -----
00022.M2TS      4113 (0x1011)   0x1B            AVC                                     118,952                 18 024                  268 004 776     1 458 199
00022.M2TS      4352 (0x1100)   0x81            AC3             eng (English)           118,952                 192                     2 858 496       18 610
00001.M2TS      4113 (0x1011)   0x1B            AVC                                     0,834                   2 405                   250 731         1 368
QUICK SUMMARY:
Disc Title: National Parks Adventure 3D
Disc Size: 20 565 368 849 bytes
Protection: AACS
BD-Java: No
Playlist: 00040.MPLS
Size: 284 590 080 bytes
Length: 0:02:00.120
Total Bitrate: 18,95 Mbps
Video: MPEG-4 AVC Video / 17866 kbps / 1080p / 23,976 fps / 16:9 / High Profile 4.1
Audio: English / Dolby Digital Audio / 2.0 / 48 kHz / 192 kbps
********************
PLAYLIST: 00038.MPLS
********************
Total   Video
Title                                                           Codec   Length  Movie Size      Disc Size       Bitrate Bitrate Main Audio Track                          Secondary Audio Track
-----                                                           ------  ------- --------------  --------------  ------- ------- ------------------                        ---------------------
00038.MPLS                                                      AVC     0:01:53 269 340 672     20 565 368 849  18,94   17,86   DD AC3 2.0 192Kbps
DISC INFO:
Disc Title:     National Parks Adventure 3D
Disc Size:      20 565 368 849 bytes
Protection:     AACS
BD-Java:        No
Extras:         Blu-ray 3D
BDInfo:         0.5.8
PLAYLIST REPORT:
Name:                   00038.MPLS
Length:                 0:01:53.738 (h:m:s.ms)
Size:                   269 340 672 bytes
Total Bitrate:          18,94 Mbps
VIDEO:
Codec                   Bitrate             Description
-----                   -------             -----------
MPEG-4 AVC Video        17858 kbps          1080p / 23,976 fps / 16:9 / High Profile 4.1
AUDIO:
Codec                           Language        Bitrate         Description
-----                           --------        -------         -----------
Dolby Digital Audio             English         192 kbps        2.0 / 48 kHz / 192 kbps / DN -4dB
FILES:
Name            Time In         Length          Size            Total Bitrate
----            -------         ------          ----            -------------
00008.M2TS      0:00:00.000     0:01:52.737     269 070 336     19 094
00001.M2TS      0:01:52.737     0:00:01.000     270 336         2 161
CHAPTERS:
Number          Time In         Length          Avg Video Rate  Max 1-Sec Rate  Max 1-Sec Time  Max 5-Sec Rate  Max 5-Sec Time  Max 10Sec Rate  Max 10Sec Time  Avg Frame Size  Max Frame Size  Max Frame Time
------          -------         ------          --------------  --------------  --------------  --------------  --------------  --------------  --------------  --------------  --------------  --------------
1               0:00:00.000     0:01:52.737     17 999 kbps     40 310 kbps     00:00:02.043    37 672 kbps     00:00:00.417    30 200 kbps     00:01:18.119    93 802 bytes    396 379 bytes   00:00:02.460
2               0:01:52.737     0:00:01.000     1 996 kbps      0 kbps          00:00:00.000    0 kbps          00:00:00.000    0 kbps          00:00:00.000    10 860 bytes    182 469 bytes   00:01:53.696
STREAM DIAGNOSTICS:
File            PID             Type            Codec           Language                Seconds                 Bitrate                 Bytes           Packets
----            ---             ----            -----           --------                --------------          --------------          -------------   -----
00008.M2TS      4113 (0x1011)   0x1B            AVC                                     112,613                 18 019                  253 640 459     1 380 001
00008.M2TS      4352 (0x1100)   0x81            AC3             eng (English)           112,613                 192                     2 704 896       17 610
00001.M2TS      4113 (0x1011)   0x1B            AVC                                     0,834                   2 405                   250 731         1 368
QUICK SUMMARY:
Disc Title: National Parks Adventure 3D
Disc Size: 20 565 368 849 bytes
Protection: AACS
BD-Java: No
Playlist: 00038.MPLS
Size: 269 340 672 bytes
Length: 0:01:53.738
Total Bitrate: 18,94 Mbps
Video: MPEG-4 AVC Video / 17858 kbps / 1080p / 23,976 fps / 16:9 / High Profile 4.1
Audio: English / Dolby Digital Audio / 2.0 / 48 kHz / 192 kbps / DN -4dB
********************
PLAYLIST: 00032.MPLS
********************
Total   Video
Title                                                           Codec   Length  Movie Size      Disc Size       Bitrate Bitrate Main Audio Track                          Secondary Audio Track
-----                                                           ------  ------- --------------  --------------  ------- ------- ------------------                        ---------------------
00032.MPLS                                                      AVC     0:01:50 262 957 056     20 565 368 849  18,97   17,85   DD AC3 2.0 192Kbps
DISC INFO:
Disc Title:     National Parks Adventure 3D
Disc Size:      20 565 368 849 bytes
Protection:     AACS
BD-Java:        No
Extras:         Blu-ray 3D
BDInfo:         0.5.8
PLAYLIST REPORT:
Name:                   00032.MPLS
Length:                 0:01:50.902 (h:m:s.ms)
Size:                   262 957 056 bytes
Total Bitrate:          18,97 Mbps
VIDEO:
Codec                   Bitrate             Description
-----                   -------             -----------
MPEG-4 AVC Video        17855 kbps          1080p / 23,976 fps / 16:9 / High Profile 4.1
AUDIO:
Codec                           Language        Bitrate         Description
-----                           --------        -------         -----------
Dolby Digital Audio             English         192 kbps        2.0 / 48 kHz / 192 kbps / DN -4dB
FILES:
Name            Time In         Length          Size            Total Bitrate
----            -------         ------          ----            -------------
00010.M2TS      0:00:00.000     0:01:49.901     262 686 720     19 122
00001.M2TS      0:01:49.901     0:00:01.000     270 336         2 161
CHAPTERS:
Number          Time In         Length          Avg Video Rate  Max 1-Sec Rate  Max 1-Sec Time  Max 5-Sec Rate  Max 5-Sec Time  Max 10Sec Rate  Max 10Sec Time  Avg Frame Size  Max Frame Size  Max Frame Time
------          -------         ------          --------------  --------------  --------------  --------------  --------------  --------------  --------------  --------------  --------------  --------------
1               0:00:00.000     0:01:49.901     17 999 kbps     31 473 kbps     00:00:39.205    30 046 kbps     00:00:35.243    26 646 kbps     00:00:32.115    93 803 bytes    367 031 bytes   00:00:33.158
2               0:01:49.901     0:00:01.000     1 996 kbps      0 kbps          00:00:00.000    0 kbps          00:00:00.000    0 kbps          00:00:00.000    10 860 bytes    182 469 bytes   00:01:50.860
STREAM DIAGNOSTICS:
File            PID             Type            Codec           Language                Seconds                 Bitrate                 Bytes           Packets
----            ---             ----            -----           --------                --------------          --------------          -------------   -----
00010.M2TS      4113 (0x1011)   0x1B            AVC                                     109,735                 18 026                  247 264 696     1 345 380
00010.M2TS      4352 (0x1100)   0x81            AC3             eng (English)           109,735                 210                     2 876 928       18 730
00001.M2TS      4113 (0x1011)   0x1B            AVC                                     0,834                   2 405                   250 731         1 368
QUICK SUMMARY:
Disc Title: National Parks Adventure 3D
Disc Size: 20 565 368 849 bytes
Protection: AACS
BD-Java: No
Playlist: 00032.MPLS
Size: 262 957 056 bytes
Length: 0:01:50.902
Total Bitrate: 18,97 Mbps
Video: MPEG-4 AVC Video / 17855 kbps / 1080p / 23,976 fps / 16:9 / High Profile 4.1
Audio: English / Dolby Digital Audio / 2.0 / 48 kHz / 192 kbps / DN -4dB
********************
PLAYLIST: 00031.MPLS
********************
Total   Video
Title                                                           Codec   Length  Movie Size      Disc Size       Bitrate Bitrate Main Audio Track                          Secondary Audio Track
-----                                                           ------  ------- --------------  --------------  ------- ------- ------------------                        ---------------------
00031.MPLS                                                      AVC     0:01:24 198 899 712     20 565 368 849  18,92   17,80   DD AC3 2.0 192Kbps
DISC INFO:
Disc Title:     National Parks Adventure 3D
Disc Size:      20 565 368 849 bytes
Protection:     AACS
BD-Java:        No
Extras:         Blu-ray 3D
BDInfo:         0.5.8
PLAYLIST REPORT:
Name:                   00031.MPLS
Length:                 0:01:24.083 (h:m:s.ms)
Size:                   198 899 712 bytes
Total Bitrate:          18,92 Mbps
VIDEO:
Codec                   Bitrate             Description
-----                   -------             -----------
MPEG-4 AVC Video        17805 kbps          1080p / 23,976 fps / 16:9 / High Profile 4.1
AUDIO:
Codec                           Language        Bitrate         Description
-----                           --------        -------         -----------
Dolby Digital Audio             English         192 kbps        2.0 / 48 kHz / 192 kbps / DN -4dB
FILES:
Name            Time In         Length          Size            Total Bitrate
----            -------         ------          ----            -------------
00013.M2TS      0:00:00.000     0:01:23.082     198 629 376     19 126
00001.M2TS      0:01:23.082     0:00:01.000     270 336         2 161
CHAPTERS:
Number          Time In         Length          Avg Video Rate  Max 1-Sec Rate  Max 1-Sec Time  Max 5-Sec Rate  Max 5-Sec Time  Max 10Sec Rate  Max 10Sec Time  Avg Frame Size  Max Frame Size  Max Frame Time
------          -------         ------          --------------  --------------  --------------  --------------  --------------  --------------  --------------  --------------  --------------  --------------
1               0:00:00.000     0:01:23.082     17 995 kbps     28 944 kbps     00:00:33.491    25 169 kbps     00:00:09.134    22 392 kbps     00:00:49.340    93 772 bytes    355 231 bytes   00:00:33.533
2               0:01:23.082     0:00:01.000     1 996 kbps      0 kbps          00:00:00.000    0 kbps          00:00:00.000    0 kbps          00:00:00.000    10 860 bytes    182 469 bytes   00:01:24.042
STREAM DIAGNOSTICS:
File            PID             Type            Codec           Language                Seconds                 Bitrate                 Bytes           Packets
----            ---             ----            -----           --------                --------------          --------------          -------------   -----
00013.M2TS      4113 (0x1011)   0x1B            AVC                                     82,916                  18 031                  186 886 744     1 016 836
00013.M2TS      4352 (0x1100)   0x81            AC3             eng (English)           82,916                  215                     2 233 344       14 540
00001.M2TS      4113 (0x1011)   0x1B            AVC                                     0,834                   2 405                   250 731         1 368
QUICK SUMMARY:
Disc Title: National Parks Adventure 3D
Disc Size: 20 565 368 849 bytes
Protection: AACS
BD-Java: No
Playlist: 00031.MPLS
Size: 198 899 712 bytes
Length: 0:01:24.083
Total Bitrate: 18,92 Mbps
Video: MPEG-4 AVC Video / 17805 kbps / 1080p / 23,976 fps / 16:9 / High Profile 4.1
Audio: English / Dolby Digital Audio / 2.0 / 48 kHz / 192 kbps / DN -4dB
********************
PLAYLIST: 00039.MPLS
********************
Total   Video
Title                                                           Codec   Length  Movie Size      Disc Size       Bitrate Bitrate Main Audio Track                          Secondary Audio Track
-----                                                           ------  ------- --------------  --------------  ------- ------- ------------------                        ---------------------
00039.MPLS                                                      AVC     0:00:32 74 913 792      20 565 368 849  18,56   17,50   DD AC3 2.0 192Kbps
DISC INFO:
Disc Title:     National Parks Adventure 3D
Disc Size:      20 565 368 849 bytes
Protection:     AACS
BD-Java:        No
Extras:         Blu-ray 3D
BDInfo:         0.5.8
PLAYLIST REPORT:
Name:                   00039.MPLS
Length:                 0:00:32.282 (h:m:s.ms)
Size:                   74 913 792 bytes
Total Bitrate:          18,56 Mbps
VIDEO:
Codec                   Bitrate             Description
-----                   -------             -----------
MPEG-4 AVC Video        17498 kbps          1080p / 23,976 fps / 16:9 / High Profile 4.1
AUDIO:
Codec                           Language        Bitrate         Description
-----                           --------        -------         -----------
Dolby Digital Audio             English         192 kbps        2.0 / 48 kHz / 192 kbps / DN -4dB
FILES:
Name            Time In         Length          Size            Total Bitrate
----            -------         ------          ----            -------------
00021.M2TS      0:00:00.000     0:00:31.281     74 643 456      19 090
00001.M2TS      0:00:31.281     0:00:01.000     270 336         2 161
CHAPTERS:
Number          Time In         Length          Avg Video Rate  Max 1-Sec Rate  Max 1-Sec Time  Max 5-Sec Rate  Max 5-Sec Time  Max 10Sec Rate  Max 10Sec Time  Avg Frame Size  Max Frame Size  Max Frame Time
------          -------         ------          --------------  --------------  --------------  --------------  --------------  --------------  --------------  --------------  --------------  --------------
1               0:00:00.000     0:00:31.281     17 994 kbps     27 320 kbps     00:00:19.018    23 167 kbps     00:00:18.518    20 741 kbps     00:00:13.054    93 685 bytes    376 048 bytes   00:00:11.803
2               0:00:31.281     0:00:01.000     1 996 kbps      0 kbps          00:00:00.000    0 kbps          00:00:00.000    0 kbps          00:00:00.000    10 860 bytes    182 469 bytes   00:00:32.240
STREAM DIAGNOSTICS:
File            PID             Type            Codec           Language                Seconds                 Bitrate                 Bytes           Packets
----            ---             ----            -----           --------                --------------          --------------          -------------   -----
00021.M2TS      4113 (0x1011)   0x1B            AVC                                     31,156                  18 066                  70 356 592      382 808
00021.M2TS      4352 (0x1100)   0x81            AC3             eng (English)           31,156                  192                     749 568         4 880
00001.M2TS      4113 (0x1011)   0x1B            AVC                                     0,834                   2 405                   250 731         1 368
QUICK SUMMARY:
Disc Title: National Parks Adventure 3D
Disc Size: 20 565 368 849 bytes
Protection: AACS
BD-Java: No
Playlist: 00039.MPLS
Size: 74 913 792 bytes
Length: 0:00:32.282
Total Bitrate: 18,56 Mbps
Video: MPEG-4 AVC Video / 17498 kbps / 1080p / 23,976 fps / 16:9 / High Profile 4.1
Audio: English / Dolby Digital Audio / 2.0 / 48 kHz / 192 kbps / DN -4dB
[ru-zerkalo.org]_t_5736758
Torrent: Registered ·  [ 2019-10-06 16:05 ] ·  1d895e574729bc9f51eb77b1bb3e8a485990b29e

48 KB

Status: checked
Completed: 0 times
Size: 19.15 GB
Rating: 
(Votes: 0)
Say thanks: 0  Thanks
 
Похожие темы
[Profile] [PM]
Display posts from previous:    
Reply to topic

The time now is: Today 06:41

All times are GMT + 7 Hours



You cannot post new topics in this forum
You cannot reply to topics in this forum
You cannot edit your posts in this forum
You cannot delete your posts in this forum
You cannot vote in polls in this forum
You cannot attach files in this forum
You can download files in this forum