Register · 
Username: Password:
 ·  Forgot password?

Без права на ошибку. История и вооружение инженерных войск (4 серии из 4) [2019, Документальный, война, вооружение, история, SATRip]

Reply to topic
DL-List and Torrent activity [Update пиров]
Size:  2.15 GB   |    Registered:  14 days   |    Completed:  1 time

Seeder not seen: 2 days 7 hours

 
   
 
 
 
Author Message

Dimas28 ®

Gender:

Longevity: 6 years

Posts: 28176

Post 09-Oct-2019 02:18

[Quote]

Без права на ошибку. История и вооружение инженерных войск (4 серии из 4)
Дата/Год выпуска: 2019
Страна: Россия, ООО «СТУДИЯ «КРЫЛЬЯ», «ВИАНЖ ПРОДАКШН»
Жанр: Документальный, война, вооружение, история
Продолжительность: 4 х ~ 00:39:00
Перевод: Не требуется
Телеканал: ЗВЕЗДА
Описание: Новый документальный цикл от киностудии «Крылья», расскажет об истории и вооружении инженерных войск России, от времен Петра I до настоящих дней. Интересный рассказ о вооружении и участии инженерных войск в боевых действиях.
Доп. информация: Авторство релиза - alf62

качество: SATRip
формат: AVI
Видео: 720x400 (1.80:1), 25 fps, XviD build 73 ~1799 kbps avg, 0.25 bit/pixel
Аудио: 48 kHz, AC3 Dolby Digital, 2/0 (L,R) ch, ~192.00 kbps avg

Список выпусков/серий

1-я серия
Особое развитие инженерные войска получили при Петре I. Именно он определил основную задачу этих войск - минимизировать потери армии и страны в целом.
Кто такие пионеры? Что такое мина? Что значит выражение «Тихой сапой»? И почему знаменитые Багратионовы флеши на Бородинском поле были вовсе не флешами? И какие виды войск родились из инженерных подразделений? В этой серии зритель получит ответы на эти вопросы.
2-я серия
1941 год. Красная армия отступает. Но на оккупированной немцами территории происходят загадочные взрывы. Это - работа специальных, особо секретных инженерных подразделений.
В этой серии рассказ пойдет о действиях военных инженеров в годы Великой Отечественной войны. Зритель узнает, почему в первые полгода инженерные подразделения понесли огромные потери, почему наступающие части Вермахта преодолели укрепленные районы - линии Сталина и Молотова, как зарождался первый Советский спецназ - штурмовые инженерно-саперные бригады и какую роль они сыграли при штурме Берлина.
3 серия
Появление атомных бомб поставило перед инженерными войсками новую задачу - защитить армию и от этого оружия. Для этого были разработаны машины, которые копают траншеи и котлованы, устраивают проходы. Благодаря этой технике были спасены многие жизни при ликвидации последствий аварии на Чернобыльской атомной электростанции. Какую машину в шутку называли «подводной лодкой инженеров», какая техника инженерных войск была наиболее востребована в ходе Афганской войны и как саперы вели охоту на караваны душманов, перевозящих оружие.
4 серия
Война в Сирии стала проверкой для всех вооруженных сил современной России. Большой объем работ в республике был проведен и военными инженерами. Они полностью очистили нескольких городов от мин и неразорвавшихся боеприпасов. В Сирии прошли испытания новейшие образцы инженерных вооружений. О том, какая новая техника поступила в инженерные войска, какие роботы помогают саперам и современным штурмовым подразделениям, а также о том, легко ли уничтожить объект, выдерживающий атомный удар и зачем научный институт военных инженеров ломает и взрывает новейшую технику.

MediaInfo

D:\Запись\Саперы\История.и.вооружение.инженерных.войск.2019.XviD.SATRip.alf62\01.История.и.вооружение.инженерных.войск.2019.XviD.SATRip.alf62.aviФормат : AVIФормат/Информация : Audio Video InterleaveРазмер файла : 548 МбайтПродолжительность : 38 м.Общий поток : 2002 Кбит/секПрограмма кодирования : VirtualDubMod 1.5.10.3 | www.virtualdub-fr.org || (build 2550/release)Библиотека кодирования : VirtualDubMod build 2550/release
ВидеоИдентификатор : 0Формат : MPEG-4 VisualПрофиль формата : Advanced Simple@L5Параметр BVOP формата : 2Параметр QPel формата : НетПараметр GMC формата : Без точки переходаПараметр матрицы формата : Default (MPEG)Идентификатор кодека : XVIDИдентификатор кодека/Подсказка : XviDПродолжительность : 38 м.Битрейт : 1800 Кбит/секШирина : 720 пикселейВысота : 400 пикселейСоотношение сторон : 16:9Частота кадров : 25,000 кадров/секЦветовое пространство : YUVСубдискретизация насыщенности : 4:2:0Битовая глубина : 8 битТип развёртки : ПрогрессивнаяМетод сжатия : С потерямиБит/(Пиксели*Кадры) : 0.250Размер потока : 493 Мбайт (90%)Библиотека кодирования : XviD 73
АудиоИдентификатор : 1Формат : AC-3Формат/Информация : Audio Coding 3Расширение режима : CM (complete main)Параметр Endianness формата : BigИдентификатор кодека : 2000Продолжительность : 38 м.Вид битрейта : ПостоянныйБитрейт : 192 Кбит/секКаналы : 2 каналаРасположение каналов : Front: L RЧастота : 48,0 КГцЧастота кадров : 31,250 кадров/сек (1536 spf)Метод сжатия : С потерямиРазмер потока : 52,6 Мбайт (10%)Выравнивание : Разделение по промежуткамПродолжительность промежутка : 40 мс. (1,00 видеокадр)Время предзагрузки промежутка : 500 мс.
[ru-zerkalo.org]_t_5786643
Torrent: Registered ·  [ 2019-10-09 02:18 ] ·  2abf9f56383c674c9e7479f6101e514761ad2521

12 KB

Status: checked
Completed: 1 times
Size: 2.15 GB
Rating: 
(Votes: 0)
Say thanks: 0  Thanks
 
Похожие темы
[Profile] [PM]
Display posts from previous:    
Reply to topic

The time now is: Today 07:52

All times are GMT + 7 Hours



You cannot post new topics in this forum
You cannot reply to topics in this forum
You cannot edit your posts in this forum
You cannot delete your posts in this forum
You cannot vote in polls in this forum
You cannot attach files in this forum
You can download files in this forum