Register · 
Username: Password:
 ·  Forgot password?

Звезды Цирка Пекина. Легенда о Мулан / Mulan (Давид Монтань / David Montagne) [2012, ТВ Шоу, цирк, IPTVRip]

Reply to topic
DL-List and Torrent activity [Update пиров]
Size:  1.22 GB   |    Registered:  13 days   |    Completed:  0 times

Seeder not seen: Never

 
   
 
 
 
Author Message

god56 ®

Gender:

Longevity: 6 years

Posts: 25819

Post 09-Oct-2019 10:57

[Quote]

Звезды Цирка Пекина. Легенда о Мулан / Mulan
Дата/Год выпуска: 2012
Страна: Франция, telmondis production
Жанр: ТВ Шоу, цирк
Продолжительность: 01:26:59
Перевод: Одноголосый закадровый
Русские субтитры: нет
Режиссер: Давид Монтань / David Montagne
Описание: Знаменитая китайская легенда о Мулан, рассказанная артистами цирка Пекина. Это масштабное фантастическое представление построено на одной из самых известных китайских легенд. В шоу задействовано 95 участников, сотни костюмов, удивительный грим, великолепные декорации, неимоверное феерическое освещение. То, что кажется немыслимым, воплощается на сцене, поражая воображение и позволяя зрителю не просто проникнуться атмосферой, а полностью прочувствовать происходящее.
качество: IPTVRip
формат: AVI
Видео: 720x400 (1.80:1), 25 fps, XviD build 73 ~1804 kbps avg, 0.25 bit/pixel
Аудио: 48 kHz, AC3 Dolby Digital, 2/0 (L,R) ch, ~192.00 kbps avg

MediaInfo

Полное имя : D:\gotov\Звезды цирка Пекина.Легенда о Мулан.2012.IPTVRip.aviФормат : AVIФормат/Информация : Audio Video InterleaveРазмер файла : 1,22 ГбайтПродолжительность : 1 ч. 26 м.Общий поток : 2006 Кбит/секПрограмма кодирования : VirtualDubMod 1.5.10.3 | www.virtualdub-fr.org || (build 2550/release)Библиотека кодирования : VirtualDubMod build 2550/release
ВидеоИдентификатор : 0Формат : MPEG-4 VisualПрофиль формата : Advanced Simple@L5Параметр BVOP формата : 2Параметр QPel формата : НетПараметр GMC формата : Без точки переходаПараметр матрицы формата : Default (MPEG)Идентификатор кодека : XVIDИдентификатор кодека/Подсказка : XviDПродолжительность : 1 ч. 26 м.Битрейт : 1805 Кбит/секШирина : 720 пикселейВысота : 400 пикселейСоотношение сторон : 16:9Частота кадров : 25,000 кадров/секЦветовое пространство : YUVСубдискретизация насыщенности : 4:2:0Битовая глубина : 8 битТип развёртки : ПрогрессивнаяМетод сжатия : С потерямиБит/(Пиксели*Кадры) : 0.251Размер потока : 1,10 Гбайт (90%)Библиотека кодирования : XviD 73
АудиоИдентификатор : 1Формат : AC-3Формат/Информация : Audio Coding 3Расширение режима : CM (complete main)Параметр Endianness формата : BigИдентификатор кодека : 2000Продолжительность : 1 ч. 26 м.Вид битрейта : ПостоянныйБитрейт : 192 Кбит/секКаналы : 2 каналаРасположение каналов : Front: L RЧастота : 48,0 КГцЧастота кадров : 31,250 кадров/сек (1536 spf)Метод сжатия : С потерямиРазмер потока : 119 Мбайт (10%)Выравнивание : Разделение по промежуткамПродолжительность промежутка : 40 мс. (1,00 видеокадр)Время предзагрузки промежутка : 500 мс.

Скриншоты

[ru-zerkalo.org]_t_5753846
Torrent: Registered ·  [ 2019-10-09 10:57 ] ·  163d705a5210698c150869084e7b7bd455597a94

13 KB

Status: checked
Completed: 0 times
Size: 1.22 GB
Rating: 
(Votes: 0)
Say thanks: 0  Thanks
 
Похожие темы
[Profile] [PM]
Display posts from previous:    
Reply to topic

The time now is: Today 07:55

All times are GMT + 7 Hours



You cannot post new topics in this forum
You cannot reply to topics in this forum
You cannot edit your posts in this forum
You cannot delete your posts in this forum
You cannot vote in polls in this forum
You cannot attach files in this forum
You can download files in this forum