Register · 
Username: Password:
 ·  Forgot password?

Черный замок / Die schwarze Burg / Čierny hrad (Барбара Экхольд / Barbara Eckhold) [1987, ГДР, ЧССР, мультфильм, сказка, DVDRip] VO

Reply to topic
DL-List and Torrent activity [Update пиров]
Size:  260 MB   |    Registered:  13 days   |    Completed:  0 times

Seeder not seen: Never

 
   
 
 
 
Author Message

Andrew1225 ®

Gender:

Longevity: 6 years

Posts: 17178

Post 10-Oct-2019 00:32

[Quote]

Черный замок / Die schwarze Burg / Čierny hrad
Страна: ГДР / ЧССР
Жанр: сказка
Продолжительность: 0:16:40
Год выпуска: 1987
Перевод: Одноголосый закадровый
Русские субтитры: нет
Режиссёр: Барбара Экхольд / Barbara Eckhold
Описание: Солдат Мартин, мечтая о встрече с любимой невестой, возвращается после службы в родной городок. Да только вот беда - жадное и злое чудище отбирает у тамошних жителей последнее добро, а недовольных превращает в каменные статуи. Кому, как не Мартину, по силам разобраться с ним?
Доп. информация:
скрытый текстВлияние чехословацких, а точнее, словацких аниматоров ощущается сразу же - по технике исполнения видно, что мультфильм совместного производства. Сценарий писали Милан Симек и Богумил Штайнер, вытянутые персонажи стилизованы под традиционные фигурки из глины, а еще трактирщик на радостях играет на длинной словацкой флейте. Единственный не очень приятный на мой взгляд момент - чересчур антропоморфный пес, с этими рогообразными ушами, "человечьим" лицом (нос и усы - точь-в-точь как у Мартина) и с пивной кружкой в руке-лапе он выглядит скорее как бес или некий обитатель острова доктора Моро - из не до конца доделанных Замысел режиссера понятен, хотелось некой оригинальности, но при эдакой внешности и с такими телодвижениям собачий лай кажется чем-то неуместным.
Семпл: http://multi-up.com/1243187
Качество: DVDRip
Формат: AVI
Видео: Xvid, 720x544 (4:3), 25 fps, 1975 kbps
Аудио: Русский, MP3, 48000 Hz, 192 kbps
Субтитры: отсутствуют

Подробные технические данные

GeneralComplete name : 1987 - Die schwarze Burg.aviFormat : AVIFormat/Info : Audio Video InterleaveFile size : 260 MiBDuration : 16 min 40 sOverall bit rate : 2 177 kb/sWriting application : VirtualDubMod 1.5.10.3 | www.virtualdub-fr.org || (build 2550/release)Writing library : VirtualDubMod build 2550/release
VideoID : 0Format : MPEG-4 VisualFormat profile : Advanced Simple@L5Format settings, BVOP : 2Format settings, QPel : NoFormat settings, GMC : No warppointsFormat settings, Matrix : Default (H.263)Codec ID : XVIDCodec ID/Hint : XviDDuration : 16 min 40 sBit rate : 1 975 kb/sWidth : 720 pixelsHeight : 544 pixelsDisplay aspect ratio : 4:3Frame rate : 25.000 FPSColor space : YUVChroma subsampling : 4:2:0Bit depth : 8 bitsScan type : ProgressiveCompression mode : LossyBits/(Pixel*Frame) : 0.202Stream size : 236 MiB (91%)Writing library : XviD 73
AudioID : 1Format : MPEG AudioFormat version : Version 1Format profile : Layer 3Mode : Joint stereoMode extension : MS StereoCodec ID : 55Codec ID/Hint : MP3Duration : 16 min 40 sBit rate mode : ConstantBit rate : 192 kb/sChannel(s) : 2 channelsSampling rate : 48.0 kHzCompression mode : LossyStream size : 22.9 MiB (9%)Alignment : Aligned on interleavesInterleave, duration : 40 ms (1.00 video frame)Interleave, preload duration : 504 ms

Скриншоты

Благодарность pmv за создание рипа
[ru-zerkalo.org]_t_5784586
Torrent: Registered ·  [ 2019-10-10 00:32 ] ·  32a9fd02782faa4dad02e3f385be8f59d31cacbc

11 KB

Status: checked
Completed: 0 times
Size: 260 MB
Rating: 
(Votes: 0)
Say thanks: 0  Thanks
 
Похожие темы
[Profile] [PM]
Display posts from previous:    
Reply to topic

The time now is: Today 07:06

All times are GMT + 7 Hours



You cannot post new topics in this forum
You cannot reply to topics in this forum
You cannot edit your posts in this forum
You cannot delete your posts in this forum
You cannot vote in polls in this forum
You cannot attach files in this forum
You can download files in this forum