Register · 
Username: Password:
 ·  Forgot password?

Филадельфийская история / The Philadelphia Story (Джордж Кьюкор / George Cukor) [1940, США, мелодрама, комедия, BDRip] MVO (Film Prestige) + DVO (New Dream Media) + DVO (Лазер видео) + DVO (Светла (ОРТ)) + Sub Rus, Eng + Original Eng

Reply to topic
DL-List and Torrent activity [Update пиров]
Size:  2.49 GB   |    Registered:  13 days   |    Completed:  0 times

Seeder not seen: Never

 
   
 
 
 
Author Message

Andrew1225 ®

Gender:

Longevity: 6 years

Posts: 17178

Post 10-Oct-2019 01:35

[Quote]

Филадельфийская история / The Philadelphia Story
Страна: США
Жанр: мелодрама, комедия
Год выпуска: 1940
Продолжительность: 01:52:27
Перевод: Профессиональный (многоголосый закадровый) - Film Prestige
Перевод: Профессиональный (двухголосый закадровый) - New Dream Media
Перевод: Профессиональный (двухголосый закадровый) - Лазер видео
Перевод: Профессиональный (двухголосый закадровый) - Светла (ОРТ)
Субтитры: русские (2 вида), английские (полные, для слабослышащих)
Оригинальная аудиодорожка: английский

Режиссер: Джордж Кьюкор / George Cukor
В ролях: Кэри Грант, Кэтрин Хепберн, Джеймс Стюарт, Рут Хасси, Джон Ховард, Роланд Янг, Джон Холлидэй, Мэри Нэш, Вирджиния Вейдлер, Генри Дэниелл
Описание: Холодная красавица миссис Трейси разведена и готовится вновь выйти замуж за Джорджа, управляющего нефтяной компанией ее отца. Казалось бы, сомнений нет, но вдруг накануне торжества неожиданно появляется ее бывший муж Декстер в сопровождении двух корреспондентов, симпатичного молодого человека по имени Коннор и мисс Имбири, которые должны осветить в «желтой» прессе это великосветское событие.
Сэмпл
Качество видео: BDRip
Формат видео: AVI
Видео: 656x480 (1.37:1), 23.976 fps, XviD build 73 ~2205 kbps avg, 0.29 bit/pixel
Аудио: 48 kHz, AC3 Dolby Digital, 2/0 (L,R) ch, ~192 kbps - Film Prestige
Аудио: 48 kHz, AC3 Dolby Digital, 2/0 (L,R) ch, ~192 kbps - New Dream Media
Аудио: 48 kHz, AC3 Dolby Digital, 2/0 (L,R) ch, ~192 kbps - Лазер видео
отдельными файлами:
Аудио: 48 kHz, AC3 Dolby Digital, 2/0 (L,R) ch, ~192 kbps - Светла
Аудио: 48 kHz, AC3 Dolby Digital, 1 ch, ~192 kbps - оригинал
Формат субтитров: softsub (SRT)

MediaInfo

ОбщееПолное имя : H:\The.Philadelphia.Story.1940.bdrip_[2.18]_[teko]\The.Philadelphia.Story.1940.bdrip_[2.18].aviФормат : AVIФормат/Информация : Audio Video InterleaveПрофиль формата : OpenDMLРазмер файла : 2,19 ГбайтПродолжительность : 1 ч. 52 м.Общий поток : 2788 Кбит/секПрограмма кодирования : VirtualDubMod 1.5.10.3 | www.virtualdub-fr.org || (build 2550/release)Библиотека кодирования : VirtualDubMod build 2550/release
ВидеоИдентификатор : 0Формат : MPEG-4 VisualПрофиль формата : Advanced Simple@L5Параметр BVOP формата : 2Параметр QPel формата : НетПараметр GMC формата : Без точки переходаПараметр матрицы формата : ВыборочнаяИдентификатор кодека : XVIDИдентификатор кодека/Подсказка : XviDПродолжительность : 1 ч. 52 м.Битрейт : 2188 Кбит/секШирина : 656 пикселейВысота : 480 пикселейСоотношение сторон : 4:3Частота кадров : 23,976 кадра/секЦветовое пространство : YUVСубдискретизация насыщенности : 4:2:0Битовая глубина : 8 битТип развёртки : ПрогрессивнаяМетод сжатия : С потерямиБит/(Пиксели*Кадры) : 0.290Размер потока : 1,72 Гбайт (78%)Библиотека кодирования : XviD 73
Аудио #1Идентификатор : 1Формат : AC-3Формат/Информация : Audio Coding 3Расширение режима : CM (complete main)Параметр Endianness формата : BigИдентификатор кодека : 2000Продолжительность : 1 ч. 52 м.Вид битрейта : ПостоянныйБитрейт : 192 Кбит/секКаналы : 2 каналаРасположение каналов : Front: L RЧастота : 48,0 КГцБитовая глубина : 16 битМетод сжатия : С потерямиРазмер потока : 154 Мбайт (7%)Выравнивание : Разделение по промежуткамПродолжительность промежутка : 42 мс. (1,00 видеокадр)Время предзагрузки промежутка : 500 мс.
Аудио #2Идентификатор : 2Формат : AC-3Формат/Информация : Audio Coding 3Расширение режима : CM (complete main)Параметр Endianness формата : BigИдентификатор кодека : 2000Продолжительность : 1 ч. 52 м.Вид битрейта : ПостоянныйБитрейт : 192 Кбит/секКаналы : 2 каналаРасположение каналов : Front: L RЧастота : 48,0 КГцБитовая глубина : 16 битМетод сжатия : С потерямиРазмер потока : 154 Мбайт (7%)Выравнивание : Разделение по промежуткамПродолжительность промежутка : 42 мс. (1,00 видеокадр)Время предзагрузки промежутка : 500 мс.
Аудио #3Идентификатор : 3Формат : AC-3Формат/Информация : Audio Coding 3Расширение режима : CM (complete main)Параметр Endianness формата : BigИдентификатор кодека : 2000Продолжительность : 1 ч. 52 м.Вид битрейта : ПостоянныйБитрейт : 192 Кбит/секКаналы : 2 каналаРасположение каналов : Front: L RЧастота : 48,0 КГцБитовая глубина : 16 битМетод сжатия : С потерямиРазмер потока : 154 Мбайт (7%)Выравнивание : Разделение по промежуткамПродолжительность промежутка : 42 мс. (1,00 видеокадр)Время предзагрузки промежутка : 500 мс.
:--
[ru-zerkalo.org]_t_5775499
Torrent: Registered ·  [ 2019-10-10 01:35 ] ·  f99eed964b60fa6587046bad9150d1d88b040bd8

13 KB

Status: checked
Completed: 0 times
Size: 2.49 GB
Rating: 
(Votes: 0)
Say thanks: 0  Thanks
 
Похожие темы
[Profile] [PM]
Display posts from previous:    
Reply to topic

The time now is: Today 07:26

All times are GMT + 7 Hours



You cannot post new topics in this forum
You cannot reply to topics in this forum
You cannot edit your posts in this forum
You cannot delete your posts in this forum
You cannot vote in polls in this forum
You cannot attach files in this forum
You can download files in this forum