Register · 
Username: Password:
 ·  Forgot password?

Момент смерти / Moment Of Death (Марк Маннуччи / Mark Mannucci) [2008, Документальный, научно-популярный, WEB-DLRip 720p]

Reply to topic
DL-List and Torrent activity [Update пиров]
Size:  1.52 GB   |    Registered:  3 months 10 days   |    Completed:  0 times

Seeder not seen: Never

 
   
 
 
 
Author Message

Andrew1225 ®

Gender:

Longevity: 6 years 3 months

Posts: 17566

Post 14-Oct-2019 01:23

[Quote]

Момент смерти / Moment Of Death- Год выпуска: 2008
Страна: USA
Студия: National Geographic
Жанр: Документальный, научно-популярный
Продолжительность: 00:49:44
Перевод: Профессиональный (одноголосый)
Русские субтитры: нет
Режиссер: Марк Маннуччи (Mark Mannucci)
Описание: Смерть. Она восхищает. Она пугает. И те, кто с нею сталкивался, и кому удалось ее избежать на время, смотрят на мир уже совсем другими глазами. Что с нами происходит, когда мы умираем? Что поджидает человека в этом коридоре пути между жизнью и - смертью? И действительно ли мы умираем, когда наше сердце останавливается навсегда?
Сэмпл
Тип релиза: WEB-DLRip 720p
Контейнер: MKV
Видео: AVC, 1280x720 (16:9), 29.970 fps, 4 000 kb/s (0.145 bit/pixel)
Аудио: AC-3, 48.0 kHz, 2 ch, 192 kb/s, CBR (Russian)
Аудио 2: AC-3, 48.0 kHz, 2 ch, 192 kb/s, CBR (English)

MediaInfo

ОбщееУникальный идентификатор : 250314706754793475938733615911815356619 (0xBC50DBE2924D8FC68BEECF93E19C20CB)Полное имя : G:\Video\Момент смерти [Moment Of Death][National Geographic](2008, WEB-DLRip 720p).mkvФормат : MatroskaВерсия формата : Version 4Размер файла : 1,52 ГбайтПродолжительность : 49 м. 44 с.Режим общего битрейта : ПеременныйОбщий поток : 4368 Кбит/секДата кодирования : UTC 2017-02-07 15:13:28Программа кодирования : mkvmerge v7.3.0 ('Nouages') 64bit built on Oct 22 2014 18:53:34Библиотека кодирования : libebml v1.3.0 + libmatroska v1.4.1
ВидеоИдентификатор : 1Формат : AVCФормат/Информация : Advanced Video CodecПрофиль формата : High@L4Настройки формата : CABAC / 3 Ref FramesПараметр CABAC формата : ДаПараметр RefFrames формата : 3 кадраИдентификатор кодека : V_MPEG4/ISO/AVCПродолжительность : 49 м. 44 с.Вид битрейта : ПеременныйБитрейт : 4000 Кбит/секМаксимальный битрейт : 8000 Кбит/секШирина : 1280 пикселейВысота : 720 пикселейСоотношение сторон : 16:9Режим частоты кадров : ПостоянныйЧастота кадров : 29,970 (30000/1001) кадров/секСтандарт вещания : NTSCЦветовое пространство : YUVСубдискретизация насыщенности : 4:2:0Битовая глубина : 8 битТип развёртки : ПрогрессивнаяБит/(Пиксели*Кадры) : 0.145Размер потока : 1,38 Гбайт (91%)Библиотека кодирования : x264 core 114Настройки программы : cabac=1 / ref=3 / deblock=1:0:0 / analyse=0x3:0x113 / me=hex / subme=7 / psy=1 / psy_rd=1.00:0.00 / mixed_ref=1 / me_range=16 / chroma_me=1 / trellis=1 / 8x8dct=1 / cqm=2 / deadzone=21,11 / fast_pskip=1 / chroma_qp_offset=-4 / threads=6 / sliced_threads=0 / slices=1 / nr=0 / decimate=1 / interlaced=0 / constrained_intra=0 / bframes=3 / b_pyramid=0 / b_adapt=1 / b_bias=0 / direct=1 / weightb=1 / open_gop=0 / weightp=2 / keyint=250 / keyint_min=25 / scenecut=40 / intra_refresh=0 / rc_lookahead=40 / rc=2pass / mbtree=1 / bitrate=4000 / ratetol=1.0 / qcomp=0.60 / qpmin=5 / qpmax=69 / qpstep=4 / cplxblur=20.0 / qblur=0.5 / vbv_maxrate=8000 / vbv_bufsize=7995 / nal_hrd=vbr / ip_ratio=1.40 / aq=1:1.00Default : ДаForced : НетЦветовой диапазон : LimitedОсновные цвета : BT.709Характеристики трансфера : BT.709Коэффициенты матрицы : BT.709
Аудио #1Идентификатор : 2Формат : AC-3Формат/Информация : Audio Coding 3Коммерческое название : Dolby DigitalИдентификатор кодека : A_AC3Продолжительность : 49 м. 44 с.Вид битрейта : ПостоянныйБитрейт : 192 Кбит/секКаналы : 2 каналаChannelLayout : L RЧастота : 48,0 КГцЧастота кадров : 31,250 кадров/сек (1536 SPF)Битовая глубина : 16 битМетод сжатия : С потерямиРазмер потока : 68,3 Мбайт (4%)Язык : RussianServiceKind/String : Complete MainDefault : ДаForced : Нет
Аудио #2Идентификатор : 3Формат : AC-3Формат/Информация : Audio Coding 3Коммерческое название : Dolby DigitalИдентификатор кодека : A_AC3Продолжительность : 49 м. 44 с.Вид битрейта : ПостоянныйБитрейт : 192 Кбит/секКаналы : 2 каналаChannelLayout : L RЧастота : 48,0 КГцЧастота кадров : 31,250 кадров/сек (1536 SPF)Битовая глубина : 16 битМетод сжатия : С потерямиРазмер потока : 68,3 Мбайт (4%)Язык : EnglishServiceKind/String : Complete MainDefault : НетForced : Да

Скриншоты


Запасной постер

[ru-zerkalo.org]_t_5787561
Torrent: Registered ·  [ 2019-10-14 01:23 ] ·  e6e1f262d91206e32555a048bf1e337eb1caf049

16 KB

Status: checked
Completed: 0 times
Size: 1.52 GB
Rating: 
(Votes: 0)
Say thanks: 0  Thanks
 
Похожие темы
[Profile] [PM]
Display posts from previous:    
Reply to topic

The time now is: Today 22:29

All times are GMT + 7 Hours



You cannot post new topics in this forum
You cannot reply to topics in this forum
You cannot edit your posts in this forum
You cannot delete your posts in this forum
You cannot vote in polls in this forum
You cannot attach files in this forum
You can download files in this forum