Register · 
Username: Password:
 ·  Forgot password?

(Авторская песня) [CD] Галина Крылова - Музыка чутких снов - 2015, FLAC (tracks+.cue), lossless

Reply to topic
DL-List and Torrent activity [Update пиров]
Size:  207 MB   |    Registered:  1 month 2 days   |    Completed:  0 times

Seeder not seen: Never

 
   
 
 
 
Author Message

Andrew1225 ®

Gender:

Longevity: 6 years 1 month

Posts: 16860

Post 20-Oct-2019 22:23

[Quote]

Галина Крылова / Музыка чутких снов
Жанр: Авторская песня
Носитель: CD
Страна-производитель диска (релиза): Россия
Год издания: 2015
Аудиокодек: FLAC (*.flac)
Тип рипа: tracks+.cue
Продолжительность: 00:40:30
Источник: собственный рип
Наличие сканов в содержимом раздачи: да
Треклист:
01 Ботик (Ю.Визбор)
02 Одинокий гитарист (Ю.Визбор)
03 Сон под пятницу (Ю.Визбор)
04 Авто (Ю.Визбор)
05 Самолетик (В.Берковский, Д.Сухарев)
06 Я так хочу весну (В.Матвеева)
07 Окончен бал (В.Матвеева)
08 Багатель (В.Матвеева)
09 Березовые следы (В.Маивеева)
10 Баллада о бегущей воде (В.Матвеева)
11 Приглашение к путешествию (В.Матвеева)
12 Хватит плакать (В.Матвеева)
13 Сказка (В.Евушкина, Д.Самойлов)
14 Огонек (Н.Сосновская)
15 Река (А.Барьюдин, Н.Матвеева)
16 Ноктюрн (В.Музыкантов)
17 Подражание Вертинскому (А.Медведенко)

Лог создания рипа

Exact Audio Copy V1.3 from 2. September 2016
Отчёт EAC об извлечении, выполненном 28. августа 2019, 8:26
Галина Крылова / Музыка чутких снов
Дисковод: Optiarc DVD RW AD-7191A Adapter: 1 ID: 0
Режим чтения : ДостоверностьИспользование точного потока : ДаОтключение кэша аудио : ДаИспользование указателей C2 : Нет
Коррекция смещения при чтении : 6Способность читать области Lead-in и Lead-out : НетЗаполнение пропущенных сэмплов тишиной : ДаУдаление блоков с тишиной в начале и конце : НетПри вычислениях CRC использовались нулевые сэмплы : ДаИнтерфейс : Встроенный Win32-интерфейс для Win NT/2000Обработка зазоров : Добавлено к предыдущему треку
Выходной формат : Пользовательский кодировщикВыбранный битрейт : 896 kBit/sКачество : ВысокийДобавление ID3-тега : НетУтилита сжатия : C:\Program Files (x86)\Exact Audio Copy\FLAC\FLAC.EXEДополнительные параметры : -V -8 -T "Genre=%genre%" -T "Artist=%artist%" -T "Title=%title%" -T "Album=%albumtitle%" -T "Date=%year%" -T "Tracknumber=%tracknr%" -T "Comment=%comment%" %source%
TOC извлечённого CD
Трек | Старт | Длительность | Начальный сектор | Конечный сектор --------------------------------------------------------------------- 1 | 0:00.00 | 2:21.08 | 0 | 10582 2 | 2:21.08 | 3:38.12 | 10583 | 26944 3 | 5:59.20 | 2:32.53 | 26945 | 38397 4 | 8:31.73 | 2:37.19 | 38398 | 50191 5 | 11:09.17 | 1:52.40 | 50192 | 58631 6 | 13:01.57 | 2:28.27 | 58632 | 69758 7 | 15:30.09 | 0:49.36 | 69759 | 73469 8 | 16:19.45 | 1:30.00 | 73470 | 80219 9 | 17:49.45 | 0:55.14 | 80220 | 84358 10 | 18:44.59 | 2:39.38 | 84359 | 96321 11 | 21:24.22 | 2:19.62 | 96322 | 106808 12 | 23:44.09 | 2:19.08 | 106809 | 117241 13 | 26:03.17 | 2:09.40 | 117242 | 126956 14 | 28:12.57 | 2:48.50 | 126957 | 139606 15 | 31:01.32 | 3:54.52 | 139607 | 157208 16 | 34:56.09 | 2:58.44 | 157209 | 170602 17 | 37:54.53 | 2:44.52 | 170603 | 182954
Трек 1
Имя файла N:\Dune\Audio (Dune)\Авторская песня\Галина Крылова\Музыка чутких снов\01 Ботик (Ю.Визбор).wav
Длина предзазора 0:00:02.00
Пиковый уровень 96.6 % Скорость извлечения 2.3 X Качество трека 99.9 % CRC теста 2FA566D3 CRC копии 2FA566D3 Копирование... OK
Трек 2
Имя файла N:\Dune\Audio (Dune)\Авторская песня\Галина Крылова\Музыка чутких снов\02 Одинокий гитарист (Ю.Визбор).wav
Пиковый уровень 91.2 % Скорость извлечения 3.8 X Качество трека 100.0 % CRC теста 7466244B CRC копии 7466244B Копирование... OK
Трек 3
Имя файла N:\Dune\Audio (Dune)\Авторская песня\Галина Крылова\Музыка чутких снов\03 Сон под пятницу (Ю.Визбор).wav
Пиковый уровень 96.6 % Скорость извлечения 2.8 X Качество трека 99.9 % CRC теста F2377441 CRC копии F2377441 Копирование... OK
Трек 4
Имя файла N:\Dune\Audio (Dune)\Авторская песня\Галина Крылова\Музыка чутких снов\04 Авто (Ю.Визбор).wav
Пиковый уровень 86.1 % Скорость извлечения 4.1 X Качество трека 100.0 % CRC теста 4BCE49AD CRC копии 4BCE49AD Копирование... OK
Трек 5
Имя файла N:\Dune\Audio (Dune)\Авторская песня\Галина Крылова\Музыка чутких снов\05 Самолетик (В.Берковский, Д.Сухарев).wav
Пиковый уровень 68.4 % Скорость извлечения 2.7 X Качество трека 99.9 % CRC теста 888DBC08 CRC копии 888DBC08 Копирование... OK
Трек 6
Имя файла N:\Dune\Audio (Dune)\Авторская песня\Галина Крылова\Музыка чутких снов\06 Я так хочу весну (В.Матвеева).wav
Пиковый уровень 85.9 % Скорость извлечения 3.1 X Качество трека 99.9 % CRC теста 1B062BBC CRC копии 1B062BBC Копирование... OK
Трек 7
Имя файла N:\Dune\Audio (Dune)\Авторская песня\Галина Крылова\Музыка чутких снов\07 Окончен бал (В.Матвеева).wav
Пиковый уровень 66.8 % Скорость извлечения 1.7 X Качество трека 99.7 % CRC теста 74E386B4 CRC копии 74E386B4 Копирование... OK
Трек 8
Имя файла N:\Dune\Audio (Dune)\Авторская песня\Галина Крылова\Музыка чутких снов\08 Багатель (В.Матвеева).wav
Пиковый уровень 96.3 % Скорость извлечения 3.9 X Качество трека 100.0 % CRC теста 7561EA7A CRC копии 7561EA7A Копирование... OK
Трек 9
Имя файла N:\Dune\Audio (Dune)\Авторская песня\Галина Крылова\Музыка чутких снов\09 Березовые следы (В.Маивеева).wav
Пиковый уровень 64.9 % Скорость извлечения 3.3 X Качество трека 100.0 % CRC теста 4D41854E CRC копии 4D41854E Копирование... OK
Трек 10
Имя файла N:\Dune\Audio (Dune)\Авторская песня\Галина Крылова\Музыка чутких снов\10 Баллада о бегущей воде (В.Матвеева).wav
Пиковый уровень 86.1 % Скорость извлечения 4.8 X Качество трека 100.0 % CRC теста 0B944E7E CRC копии 0B944E7E Копирование... OK
Трек 11
Имя файла N:\Dune\Audio (Dune)\Авторская песня\Галина Крылова\Музыка чутких снов\11 Приглашение к путешествию (В.Матвеева).wav
Пиковый уровень 62.6 % Скорость извлечения 4.7 X Качество трека 100.0 % CRC теста 7018DD26 CRC копии 7018DD26 Копирование... OK
Трек 12
Имя файла N:\Dune\Audio (Dune)\Авторская песня\Галина Крылова\Музыка чутких снов\12 Хватит плакать (В.Матвеева).wav
Пиковый уровень 96.6 % Скорость извлечения 3.5 X Качество трека 99.9 % CRC теста 8AC17A1F CRC копии 8AC17A1F Копирование... OK
Трек 13
Имя файла N:\Dune\Audio (Dune)\Авторская песня\Галина Крылова\Музыка чутких снов\13 Сказка (В.Евушкина, Д.Самойлов).wav
Пиковый уровень 96.6 % Скорость извлечения 5.0 X Качество трека 100.0 % CRC теста 046653A2 CRC копии 046653A2 Копирование... OK
Трек 14
Имя файла N:\Dune\Audio (Dune)\Авторская песня\Галина Крылова\Музыка чутких снов\14 Огонек (Н.Сосновская).wav
Пиковый уровень 96.6 % Скорость извлечения 4.0 X Качество трека 99.9 % CRC теста BA677169 CRC копии BA677169 Копирование... OK
Трек 15
Имя файла N:\Dune\Audio (Dune)\Авторская песня\Галина Крылова\Музыка чутких снов\15 Река (А.Барьюдин, Н.Матвеева).wav
Пиковый уровень 86.1 % Скорость извлечения 4.6 X Качество трека 99.9 % CRC теста 807D75D5 CRC копии 807D75D5 Копирование... OK
Трек 16
Имя файла N:\Dune\Audio (Dune)\Авторская песня\Галина Крылова\Музыка чутких снов\16 Ноктюрн (В.Музыкантов).wav
Пиковый уровень 96.6 % Скорость извлечения 4.3 X Качество трека 99.9 % CRC теста 2661C5A0 CRC копии 2661C5A0 Копирование... OK
Трек 17
Имя файла N:\Dune\Audio (Dune)\Авторская песня\Галина Крылова\Музыка чутких снов\17 Подражание Вертинскому (А.Медведенко).wav
Пиковый уровень 96.6 % Скорость извлечения 4.3 X Качество трека 99.9 % CRC теста 3DE7299A CRC копии 3DE7299A Копирование... OK
Ошибок не произошло
Конец отчёта
==== Контрольная сумма отчёта BC9637A62FA228777CE63D883D8C5D84A0273A02C507948169902C8A8B2B97E9 ====

Содержание индексной карты (.CUE)

REM GENRE BardsREM DATE 2015REM DISCID E9098711REM COMMENT "ExactAudioCopy v1.3"PERFORMER "Галина Крылова"TITLE "Музыка чутких снов"REM COMPOSER ""FILE "01 Ботик (Ю.Визбор).wav" WAVE TRACK 01 AUDIO TITLE "Ботик" PERFORMER "Галина Крылова" REM COMPOSER "Ю.Визбор" INDEX 01 00:00:00FILE "02 Одинокий гитарист (Ю.Визбор).wav" WAVE TRACK 02 AUDIO TITLE "Одинокий гитарист" PERFORMER "Галина Крылова" REM COMPOSER "Ю.Визбор" INDEX 01 00:00:00FILE "03 Сон под пятницу (Ю.Визбор).wav" WAVE TRACK 03 AUDIO TITLE "Сон под пятницу" PERFORMER "Галина Крылова" REM COMPOSER "Ю.Визбор" INDEX 01 00:00:00FILE "04 Авто (Ю.Визбор).wav" WAVE TRACK 04 AUDIO TITLE "Авто" PERFORMER "Галина Крылова" REM COMPOSER "Ю.Визбор" INDEX 01 00:00:00FILE "05 Самолетик (В.Берковский, Д.Сухарев).wav" WAVE TRACK 05 AUDIO TITLE "Самолетик" PERFORMER "Галина Крылова" REM COMPOSER "В.Берковский, Д.Сухарев" INDEX 01 00:00:00FILE "06 Я так хочу весну (В.Матвеева).wav" WAVE TRACK 06 AUDIO TITLE "Я так хочу весну" PERFORMER "Галина Крылова" REM COMPOSER "В.Матвеева" INDEX 01 00:00:00FILE "07 Окончен бал (В.Матвеева).wav" WAVE TRACK 07 AUDIO TITLE "Окончен бал" PERFORMER "Галина Крылова" REM COMPOSER "В.Матвеева" INDEX 01 00:00:00FILE "08 Багатель (В.Матвеева).wav" WAVE TRACK 08 AUDIO TITLE "Багатель" PERFORMER "Галина Крылова" REM COMPOSER "В.Матвеева" INDEX 01 00:00:00FILE "09 Березовые следы (В.Маивеева).wav" WAVE TRACK 09 AUDIO TITLE "Березовые следы" PERFORMER "Галина Крылова" REM COMPOSER "В.Маивеева" INDEX 01 00:00:00FILE "10 Баллада о бегущей воде (В.Матвеева).wav" WAVE TRACK 10 AUDIO TITLE "Баллада о бегущей воде" PERFORMER "Галина Крылова" REM COMPOSER "В.Матвеева" INDEX 01 00:00:00FILE "11 Приглашение к путешествию (В.Матвеева).wav" WAVE TRACK 11 AUDIO TITLE "Приглашение к путешествию" PERFORMER "Галина Крылова" REM COMPOSER "В.Матвеева" INDEX 01 00:00:00FILE "12 Хватит плакать (В.Матвеева).wav" WAVE TRACK 12 AUDIO TITLE "Хватит плакать" PERFORMER "Галина Крылова" REM COMPOSER "В.Матвеева" INDEX 01 00:00:00FILE "13 Сказка (В.Евушкина, Д.Самойлов).wav" WAVE TRACK 13 AUDIO TITLE "Сказка" PERFORMER "Галина Крылова" REM COMPOSER "В.Евушкина, Д.Самойлов" INDEX 01 00:00:00FILE "14 Огонек (Н.Сосновская).wav" WAVE TRACK 14 AUDIO TITLE "Огонек" PERFORMER "Галина Крылова" REM COMPOSER "Н.Сосновская" INDEX 01 00:00:00FILE "15 Река (А.Барьюдин, Н.Матвеева).wav" WAVE TRACK 15 AUDIO TITLE "Река" PERFORMER "Галина Крылова" REM COMPOSER "А.Барьюдин, Н.Матвеева" INDEX 01 00:00:00FILE "16 Ноктюрн (В.Музыкантов).wav" WAVE TRACK 16 AUDIO TITLE "Ноктюрн" PERFORMER "Галина Крылова" REM COMPOSER "В.Музыкантов" INDEX 01 00:00:00FILE "17 Подражание Вертинскому (А.Медведенко).wav" WAVE TRACK 17 AUDIO TITLE "Подражание Вертинскому" PERFORMER "Галина Крылова" REM COMPOSER "А.Медведенко" INDEX 01 00:00:00
[ru-zerkalo.org]_t_5771107
Torrent: Registered ·  [ 2019-10-20 22:23 ] ·  f931f5bd3c8a09858f2690e312f025f34c1a88bf

19 KB

Status: checked
Completed: 0 times
Size: 207 MB
Rating: 
(Votes: 0)
Say thanks: 0  Thanks
 
Похожие темы
[Profile] [PM]
Display posts from previous:    
Reply to topic

The time now is: Today 22:30

All times are GMT + 7 Hours



You cannot post new topics in this forum
You cannot reply to topics in this forum
You cannot edit your posts in this forum
You cannot delete your posts in this forum
You cannot vote in polls in this forum
You cannot attach files in this forum
You can download files in this forum