Register · 
Username: Password:
 ·  Forgot password?

Die Fantastischen Vier - Wer 4 sind [2019, Documentary, Rap, Hip-Hop, Blu-ray, 1080i]

Reply to topic
DL-List and Torrent activity [Update пиров]
Size:  23.03 GB   |    Registered:  1 month 14 days   |    Completed:  0 times

Seeder not seen: Never

 
   
 
 
 
Author Message

temkin_88 ®

Gender:

Longevity: 6 years 2 months

Posts: 16586

Post 29-Oct-2019 03:14

[Quote]

Die Fantastischen Vier - Wer 4 sind
Жанр: Documentary, Rap, Hip-Hop
Продолжительность: 01:41:06
Год выпуска: 2019
Описание: Their World Cup anthem "Together" from 2018 is still in all our ears, titles like "Die da!?!", "Sie ist weg" and "MfG" are unforgotten classics anyway: During their 30 years of band history, Die Fantastischen Vier have given us numerous hits. But nobody thinks of stopping with them yet. The four boys simply have too much to tell for that, as this documentary film proves. What is the secret of Germany's most successful hip hop band? What makes them different? How did they establish themselves in German pop culture and develop over the years? A look behind the scenes of a band that has written German music history and continues to do so.
Welcome to the colourful world of the FANTASTIC FOUR Thomas D, Smudo, Michi Beck and And.Ypsilon
This exclusive documentary film about the 30th anniversary of the most successful hip-hop band in Germany portrays the present, its reality and the diversity of the four fascinating characters..
Доп. информация: Перевода нет
Качество: Blu-ray
Разрешение видео/развертка: 1080i
Контейнер: BDMV
Видео кодек: H.264
Аудио кодек: DTS
Видео: MPEG-4 AVC Video / 25497 kbps / 1080i / 25 fps / 16:9 / High Profile 4.1
Аудио#1: German / DTS-HD Master Audio / 5.1 / 48 kHz / 1754 kbps / 16-bit (DTS Core: 5.1 / 48 kHz / 768 kbps / 16-bit)
Аудио#2: LPCM Audio / 2.0 / 48 kHz / 1536 kbps / 16-bit

BDInfo

Disc Label: Wer 4 sind - Die Fantastischen VierDisc Size: 24,729,349,464 bytesProtection: AACSExtras: 50Hz ContentBDInfo: 0.7.5.5
Notes:
BDINFO HOME: Cinema Squid (old) http://www.cinemasquid.com/blu-ray/tools/bdinfo UniqProject GitHub (new) http://github.com/UniqProject/BDInfo
INCLUDES FORUMS REPORT FOR: AVS Forum Blu-ray Audio and Video Specifications Thread http://www.avsforum.com/avs-vb/showthread.php?t=1155731
********************PLAYLIST: 00017.MPLS********************
Total   Video
Title                                                           Codec   Length  Movie Size      Disc Size       Bitrate Bitrate Main Audio Track                          Secondary Audio Track
-----                                                           ------  ------- --------------  --------------  ------- ------- ------------------                        ---------------------
00017.MPLS                                                      AVC     1:41:06 23,197,468,224  24,729,349,464  30.59   25.50   DTS-HD Master 5.1 1754Kbps (48kHz/16-bit)
DISC INFO:
Disc Label:     Wer 4 sind - Die Fantastischen Vier
Disc Size:      24,729,349,464 bytes
Protection:     AACS
Extras:         50Hz Content
BDInfo:         0.7.5.5
PLAYLIST REPORT:
Name:                   00017.MPLS
Length:                 1:41:06.880 (h:m:s.ms)
Size:                   23,197,468,224 bytes
Total Bitrate:          30.59 Mbps
VIDEO:
Codec                   Bitrate             Description
-----                   -------             -----------
MPEG-4 AVC Video        25497 kbps          1080i / 25 fps / 16:9 / High Profile 4.1
AUDIO:
Codec                           Language        Bitrate         Description
-----                           --------        -------         -----------
DTS-HD Master Audio             German          1754 kbps       5.1 / 48 kHz /  1754 kbps / 16-bit (DTS Core: 5.1 / 48 kHz /   768 kbps / 16-bit)
LPCM Audio                      Undetermined    1536 kbps       2.0 / 48 kHz /  1536 kbps / 16-bit
SUBTITLES:
Codec                           Language        Bitrate         Description
-----                           --------        -------         -----------
Presentation Graphics           Undetermined    80.507 kbps
FILES:
Name            Time In         Length          Size            Total Bitrate
----            -------         ------          ----            -------------
00005.M2TS      0:00:00.000     1:41:06.880     23,197,468,224  30,589
CHAPTERS:
Number          Time In         Length          Avg Video Rate  Max 1-Sec Rate  Max 1-Sec Time  Max 5-Sec Rate  Max 5-Sec Time  Max 10Sec Rate  Max 10Sec Time  Avg Frame Size  Max Frame Size  Max Frame Time
------          -------         ------          --------------  --------------  --------------  --------------  --------------  --------------  --------------  --------------  --------------  --------------
1               0:00:00.000     0:11:23.079     21,460 kbps     55,040 kbps     00:00:31.960    39,318 kbps     00:00:31.960    34,724 kbps     00:05:00.160    107,293 bytes   649,426 bytes   00:02:47.919
2               0:11:23.079     0:09:23.880     24,950 kbps     45,688 kbps     00:12:51.440    40,933 kbps     00:13:27.440    38,566 kbps     00:13:24.559    124,748 bytes   615,208 bytes   00:18:10.080
3               0:20:46.960     0:07:09.880     23,593 kbps     43,567 kbps     00:25:04.000    38,901 kbps     00:26:20.639    33,237 kbps     00:26:56.960    117,967 bytes   869,744 bytes   00:25:07.880
4               0:27:56.840     0:12:47.480     23,464 kbps     48,515 kbps     00:38:18.680    41,571 kbps     00:40:13.040    37,860 kbps     00:40:13.040    117,318 bytes   712,516 bytes   00:38:35.280
5               0:40:44.320     0:07:43.359     23,759 kbps     56,282 kbps     00:47:56.560    40,825 kbps     00:47:44.040    39,518 kbps     00:44:11.120    118,797 bytes   471,103 bytes   00:42:23.400
6               0:48:27.680     0:10:22.599     27,128 kbps     52,343 kbps     00:49:05.800    42,834 kbps     00:48:35.400    39,460 kbps     00:50:50.800    135,642 bytes   616,231 bytes   00:49:08.200
7               0:58:50.280     0:15:51.400     25,657 kbps     60,462 kbps     01:02:42.040    43,171 kbps     01:09:30.920    39,265 kbps     00:59:57.520    128,284 bytes   589,814 bytes   00:59:57.600
8               1:14:41.680     0:20:12.519     27,705 kbps     52,376 kbps     01:23:00.280    43,979 kbps     01:17:27.280    40,547 kbps     01:28:28.880    138,524 bytes   786,317 bytes   01:18:24.240
9               1:34:54.200     0:06:06.760     32,067 kbps     57,697 kbps     01:35:45.600    41,217 kbps     01:36:32.120    39,011 kbps     01:35:01.360    160,337 bytes   577,963 bytes   01:36:39.760
10              1:41:00.960     0:00:05.920     25,104 kbps     31,290 kbps     01:41:03.520    27,487 kbps     01:41:01.040    0 kbps          00:00:00.000    127,239 bytes   266,945 bytes   01:41:04.040
STREAM DIAGNOSTICS:
File            PID             Type            Codec           Language                Seconds                 Bitrate                 Bytes           Packets
----            ---             ----            -----           --------                --------------          --------------          -------------   -----
00005.M2TS      4113 (0x1011)   0x1B            AVC                                     6066.800                25,498                  19,336,120,020  105,177,542
00005.M2TS      4352 (0x1100)   0x86            DTS-HD MA       deu (German)            6066.800                1,754                   1,330,499,504   7,815,471
00005.M2TS      4353 (0x1101)   0x80            LPCM            und (Undetermined)      6066.800                1,542                   1,169,694,464   7,280,256
00005.M2TS      4608 (0x1200)   0x90            PGS             und (Undetermined)      6066.800                81                      61,053,918      343,638
QUICK SUMMARY:
Disc Label: Wer 4 sind - Die Fantastischen VierDisc Size: 24,729,349,464 bytesProtection: AACSPlaylist: 00017.MPLSSize: 23,197,468,224 bytesLength: 1:41:06.880Total Bitrate: 30.59 MbpsVideo: MPEG-4 AVC Video / 25497 kbps / 1080i / 25 fps / 16:9 / High Profile 4.1Audio: German / DTS-HD Master Audio / 5.1 / 48 kHz / 1754 kbps / 16-bit (DTS Core: 5.1 / 48 kHz / 768 kbps / 16-bit)Audio: Undetermined / LPCM Audio / 2.0 / 48 kHz / 1536 kbps / 16-bitSubtitle: Undetermined / 80.507 kbps
********************PLAYLIST: 00009.MPLS********************
Total   Video
Title                                                           Codec   Length  Movie Size      Disc Size       Bitrate Bitrate Main Audio Track                          Secondary Audio Track
-----                                                           ------  ------- --------------  --------------  ------- ------- ------------------                        ---------------------
00009.MPLS                                                      AVC     0:02:20 509,111,808     24,729,349,464  28.94   25.52   DTS-HD Master 5.1 1986Kbps (48kHz/16-bit)
DISC INFO:
Disc Label:     Wer 4 sind - Die Fantastischen Vier
Disc Size:      24,729,349,464 bytes
Protection:     AACS
Extras:         50Hz Content
BDInfo:         0.7.5.5
PLAYLIST REPORT:
Name:                   00009.MPLS
Length:                 0:02:20.720 (h:m:s.ms)
Size:                   509,111,808 bytes
Total Bitrate:          28.94 Mbps
VIDEO:
Codec                   Bitrate             Description
-----                   -------             -----------
MPEG-4 AVC Video        25521 kbps          1080i / 25 fps / 16:9 / High Profile 4.1
AUDIO:
Codec                           Language        Bitrate         Description
-----                           --------        -------         -----------
DTS-HD Master Audio             German          1986 kbps       5.1 / 48 kHz /  1986 kbps / 16-bit (DTS Core: 5.1 / 48 kHz /   768 kbps / 16-bit)
FILES:
Name            Time In         Length          Size            Total Bitrate
----            -------         ------          ----            -------------
00003.M2TS      0:00:00.000     0:01:49.600     397,677,504     29,017
00011.M2TS      0:01:49.600     0:00:31.120     111,434,304     28,610
CHAPTERS:
Number          Time In         Length          Avg Video Rate  Max 1-Sec Rate  Max 1-Sec Time  Max 5-Sec Rate  Max 5-Sec Time  Max 10Sec Rate  Max 10Sec Time  Avg Frame Size  Max Frame Size  Max Frame Time
------          -------         ------          --------------  --------------  --------------  --------------  --------------  --------------  --------------  --------------  --------------  --------------
1               0:00:00.000     0:01:49.559     25,641 kbps     60,427 kbps     00:01:38.919    39,369 kbps     00:01:34.600    36,362 kbps     00:01:29.759    128,206 bytes   886,131 bytes   00:01:43.240
2               0:01:49.559     0:00:31.160     25,166 kbps     55,186 kbps     00:02:09.120    38,284 kbps     00:02:06.000    34,143 kbps     00:02:04.640    126,316 bytes   884,366 bytes   00:02:14.680
STREAM DIAGNOSTICS:
File            PID             Type            Codec           Language                Seconds                 Bitrate                 Bytes           Packets
----            ---             ----            -----           --------                --------------          --------------          -------------   -----
00003.M2TS      4113 (0x1011)   0x1B            AVC                                     109.520                 25,652                  351,177,337     1,910,137
00003.M2TS      4352 (0x1100)   0x86            DTS-HD MA       deu (German)            109.520                 1,974                   27,024,524      157,508
00011.M2TS      4113 (0x1011)   0x1B            AVC                                     31.040                  25,269                  98,042,924      533,297
00011.M2TS      4352 (0x1100)   0x86            DTS-HD MA       deu (German)            31.040                  2,045                   7,932,936       46,125
QUICK SUMMARY:
Disc Label: Wer 4 sind - Die Fantastischen VierDisc Size: 24,729,349,464 bytesProtection: AACSPlaylist: 00009.MPLSSize: 509,111,808 bytesLength: 0:02:20.720Total Bitrate: 28.94 MbpsVideo: MPEG-4 AVC Video / 25521 kbps / 1080i / 25 fps / 16:9 / High Profile 4.1Audio: German / DTS-HD Master Audio / 5.1 / 48 kHz / 1986 kbps / 16-bit (DTS Core: 5.1 / 48 kHz / 768 kbps / 16-bit)

Скриншоты


[ru-zerkalo.org]_t_5795715
Torrent: Registered ·  [ 2019-10-29 03:14 ] ·  3ff0dfac7fbb84f2a72525452940dd6ee1fedf64

122 KB

Status: checked
Completed: 0 times
Size: 23.03 GB
Rating: 
(Votes: 0)
Say thanks: 0  Thanks
 
Похожие темы
[Profile] [PM]
Display posts from previous:    
Reply to topic

The time now is: Today 21:35

All times are GMT + 7 Hours



You cannot post new topics in this forum
You cannot reply to topics in this forum
You cannot edit your posts in this forum
You cannot delete your posts in this forum
You cannot vote in polls in this forum
You cannot attach files in this forum
You can download files in this forum