Register · 
Username: Password:
 ·  Forgot password?

(Pop, Schlager, Children\'s, Happy Hardcore) [CD] Marijke Amado - CD Collection (2CD) - 1996, FLAC (image+.cue), lossless

Reply to topic
DL-List and Torrent activity [Update пиров]
Size:  421 MB   |    Registered:  2 months 16 days   |    Completed:  0 times

Seeder not seen: Never

 
   
 
 
 
Author Message

FragoMan ®

Gender:

Longevity: 6 years 3 months

Posts: 24922

Post 08-Nov-2019 20:28

[Quote]

Marijke Amado / CD Collection (Album & Single)
Жанр: Pop, Schlager, Children's, Happy Hardcore
Носитель: CD
Страна-производитель диска (релиза): Germany
Год издания: 1996
Издатель (лейбл): Portrait, RTL Musikedition
[Страна исполнителя (группы): Netherlands
Аудиокодек: FLAC (*.flac)
Тип рипа: image+.cue
Битрейт аудио: lossless
Продолжительность: 00:58:27
Источник: Друг
Наличие сканов в содержимом раздачи: нет

1996 - Kids Of The World

Жанр: Pop, Schlager, Children's, Happy Hardcore
Носитель: CD
Страна-производитель диска (релиза): Germany
Год издания: 1996
Издатель (лейбл): Portrait, RTL Musikedition
Номер по каталогу: 485374 2
Страна исполнителя (группы): Netherlands
Аудиокодек: FLAC (*.flac)
Тип рипа: image+.cue
Битрейт аудио: lossless
Продолжительность: 00:43:34
Источник: Друг
Наличие сканов в содержимом раздачи: нет
Треклист:
01. Kids Of The World 3:27
02. Lookalike 3:49
03. Party Auf'm Mars 3:58
04. Teddybaer 3:45
05. Du Biest Verliebt 4:03
06. Schluesselkind 3:35
07. Frei Wie Der Wind 3:54
08. Superman 3:58
09. Frieden Und Liebe 3:57
10. Der Sandmann (Schu-Lei-Di-Da) 4:25
11. Mini-Playback-Show-Thema (Original Version) 1:39
12. Mini-Playback-Show-Thema (Radio-Version) 3:03

Лог создания рипа

Exact Audio Copy V1.3 from 2. September 2016
Отчёт EAC об извлечении, выполненном 4. ноября 2019, 9:08
Marijke Amado / Kids Of The World
Дисковод: PLDS DVD-RW DS8ABSH Adapter: 1 ID: 0
Режим чтения : ДостоверностьИспользование точного потока : ДаОтключение кэша аудио : ДаИспользование указателей C2 : Нет
Коррекция смещения при чтении : 6Способность читать области Lead-in и Lead-out : НетЗаполнение пропущенных сэмплов тишиной : ДаУдаление блоков с тишиной в начале и конце : НетПри вычислениях CRC использовались нулевые сэмплы : ДаИнтерфейс : Встроенный Win32-интерфейс для Win NT/2000
Выходной формат : Пользовательский кодировщикВыбранный битрейт : 896 kBit/sКачество : ВысокийДобавление ID3-тега : НетУтилита сжатия : C:\Program Files (x86)\Exact Audio Copy\Flac\flac.exeДополнительные параметры : -V -8 %source%
TOC извлечённого CD
Трек | Старт | Длительность | Начальный сектор | Конечный сектор --------------------------------------------------------------------- 1 | 0:00.00 | 3:27.00 | 0 | 15524 2 | 3:27.00 | 3:49.25 | 15525 | 32724 3 | 7:16.25 | 3:58.25 | 32725 | 50599 4 | 11:14.50 | 3:45.25 | 50600 | 67499 5 | 15:00.00 | 4:03.25 | 67500 | 85749 6 | 19:03.25 | 3:35.25 | 85750 | 101899 7 | 22:38.50 | 3:53.50 | 101900 | 119424 8 | 26:32.25 | 3:58.00 | 119425 | 137274 9 | 30:30.25 | 3:57.00 | 137275 | 155049 10 | 34:27.25 | 4:24.50 | 155050 | 174899 11 | 38:52.00 | 1:39.25 | 174900 | 182349 12 | 40:31.25 | 3:03.02 | 182350 | 196076
Характеристики диапазона извлечения и сообщения об ошибках
Выбранный диапазон
Имя файла C:\Users\Лаврентий Палыч Б\Music\Playlists\Marijke Amado - Kids Of The World.wav
Пиковый уровень 98.2 % Скорость извлечения 3.4 X Качество диапазона 100.0 % CRC теста 19977A12 CRC копии 19977A12 Копирование... OK
Ошибок не произошло
AccurateRip: сводка
Трек 1 отсутствует в базе данныхТрек 2 отсутствует в базе данныхТрек 3 отсутствует в базе данныхТрек 4 отсутствует в базе данныхТрек 5 отсутствует в базе данныхТрек 6 отсутствует в базе данныхТрек 7 отсутствует в базе данныхТрек 8 отсутствует в базе данныхТрек 9 отсутствует в базе данныхТрек 10 отсутствует в базе данныхТрек 11 отсутствует в базе данныхТрек 12 отсутствует в базе данных
Ни одного трека нет в базе AccurateRip
Конец отчёта
---- CUETools DB Plugin V2.1.6
[CTDB TOCID: GkN_Rw21f7AmwR0yaLKLlbb5hnU-] disk not present in databaseSubmit result: GkN_Rw21f7AmwR0yaLKLlbb5hnU- has been uploaded
==== Контрольная сумма отчёта AAEA3943494DF1179CA77D55893D850231F615FA4914DAD0DBFB801BA7EAF85C ====

1996 - Party Auf'm Mars

Жанр: Pop, Schlager, Children's, Happy Hardcore
Носитель: CDM
Страна-производитель диска (релиза): Germany
Год издания: 1996
Издатель (лейбл): Portrait, RTL Musikedition
Номер по каталогу: PRT 663804 2
Страна исполнителя (группы): Netherlands
Аудиокодек: FLAC (*.flac)
Тип рипа: image+.cue
Битрейт аудио: lossless
Продолжительность: 00:14:53
Источник: Друг
Наличие сканов в содержимом раздачи: нет
Треклист:
01. Party Auf'm Mars (Radio Version) 3:59
02. Party Auf'm Mars (Dance Version) 6:57
03. Party Auf'm Mars (Karaoke Version) 3:57

Лог создания рипа

Exact Audio Copy V1.3 from 2. September 2016
Отчёт EAC об извлечении, выполненном 4. ноября 2019, 9:30
Marijke Amado / Party Auf'm Mars
Дисковод: PLDS DVD-RW DS8ABSH Adapter: 1 ID: 0
Режим чтения : ДостоверностьИспользование точного потока : ДаОтключение кэша аудио : ДаИспользование указателей C2 : Нет
Коррекция смещения при чтении : 6Способность читать области Lead-in и Lead-out : НетЗаполнение пропущенных сэмплов тишиной : ДаУдаление блоков с тишиной в начале и конце : НетПри вычислениях CRC использовались нулевые сэмплы : ДаИнтерфейс : Встроенный Win32-интерфейс для Win NT/2000
Выходной формат : Пользовательский кодировщикВыбранный битрейт : 896 kBit/sКачество : ВысокийДобавление ID3-тега : НетУтилита сжатия : C:\Program Files (x86)\Exact Audio Copy\Flac\flac.exeДополнительные параметры : -V -8 %source%
TOC извлечённого CD
Трек | Старт | Длительность | Начальный сектор | Конечный сектор --------------------------------------------------------------------- 1 | 0:00.00 | 3:58.50 | 0 | 17899 2 | 3:58.50 | 6:57.00 | 17900 | 49174 3 | 10:55.50 | 3:57.15 | 49175 | 66964
Характеристики диапазона извлечения и сообщения об ошибках
Выбранный диапазон
Имя файла C:\Users\Лаврентий Палыч Б\Music\Playlists\Marijke Amado - Party Auf'm Mars.wav
Пиковый уровень 98.1 % Скорость извлечения 2.7 X Качество диапазона 100.0 % CRC теста 3B4E92CB CRC копии 3B4E92CB Копирование... OK
Ошибок не произошло
AccurateRip: сводка
Трек 1 отсутствует в базе данныхТрек 2 отсутствует в базе данныхТрек 3 отсутствует в базе данных
Ни одного трека нет в базе AccurateRip
Конец отчёта
---- CUETools DB Plugin V2.1.6
[CTDB TOCID: bMa0EEclwKXVEAkt7YqXlysJK1Q-] foundSubmit result: bMa0EEclwKXVEAkt7YqXlysJK1Q- has been confirmedTrack | CTDB Status 1 | (1/1) Accurately ripped 2 | (1/1) Accurately ripped 3 | (1/1) Accurately ripped
==== Контрольная сумма отчёта 146FBD3F0F692AEC702FF5B2EC2B64E0C11900C9628840745A4D022F41754E12 ====

О раздаче и сканах

Данная раздача сделана мной вместе с моим очень хорошим другом. Сканера, у него нет, поэтому со сканами пока глухо. Но в перспективе эта проблема решаема, и по мере возможности сканы в наши раздачи будут добавляться.

Наши раздачи

Joy - Original Remastered Edition (2CD) - 2016, FLAC (image+.cue), lossless
Peter Wilson - Careless Nights CDM - 2018, FLAC (image+.cue), lossless
Rednex - Greatest Hits & Remixes (2CD) - 2019, FLAC (image+.cue), lossless
Oliver Lukas - CD Collection (5CD) - 2004-2015, FLAC (image+.cue), lossless
Marijke Amado - CD Collection (2CD) - 1996, FLAC (image+.cue), lossless
Sarah - CD Collection (2CD) - 1992, FLAC (image+.cue), lossless
Vanessa Mai - CD Collection (3CD) - 2016-2018, FLAC (image+.cue), lossless
Доп. информация: Marijke Amado - популярная голландская телеведущая. Также работала на немецком телевидении и радио. В частности, с 1990 по 1998 годы вела передачу Mini Playback Show на канале RTL-Kindersendung. Кстати, сменила её там впоследствии Jasmin Wagner (Blumchen). В 1996 году выпустила альбом и сингл. Продюсер Ralf-René Maué, звукорежиссёр Luis Rodriguez. По стилю ближе всего к поздним London Boys.
[ru-zerkalo.org]_t_5801920
Torrent: Registered ·  [ 2019-11-08 20:27 ] ·  ab894127d277d12a48ea4c981071753c5d3360ae

17 KB

Status: checked
Completed: 0 times
Size: 421 MB
Rating: 
(Votes: 0)
Say thanks: 0  Thanks
 
Похожие темы
[Profile] [PM]
Display posts from previous:    
Reply to topic

The time now is: Today 22:25

All times are GMT + 7 Hours



You cannot post new topics in this forum
You cannot reply to topics in this forum
You cannot edit your posts in this forum
You cannot delete your posts in this forum
You cannot vote in polls in this forum
You cannot attach files in this forum
You can download files in this forum