Register · 
Username: Password:
 ·  Forgot password?

(Euro-House, Electronic) [CD] Ю-ЛА project - Твой Б-52 - 1998, TAK (tracks+.cue) lossless (Юла, B-52)

Reply to topic
DL-List and Torrent activity [Update пиров]
Size:  291 MB   |    Registered:  2 months 15 days   |    Completed:  2 times

Seeder not seen: 4 days

 
   
 
 
 
Author Message

manic-manic ®

Gender:

Longevity: 6 years 3 months

Posts: 14194

Post 08-Nov-2019 22:33

[Quote]


Ю-ЛА project - Твой Б-52

Жанр: Pop
Носитель: CD
Страна-производитель диска (релиза): РФ
Год издания: 2016
Аудиокодек: TAK (*.tak)
Тип рипа: tracks+.cue
Продолжительность: 00:46:11
Источник: собственный рип
Наличие сканов в содержимом раздачи: есть
Треклист:
01 - Сволочь, у меня мотор
02 - Нюхали...
03 - Говори
04 - Вася
05 - Подвигай
06 - Б-52
07 - Жду звонка
08 - Говори (Triplex remix)
09 - Нюхали (Smiff remix)
10 - Сволочь (MF mix)

Лог создания рипа

Exact Audio Copy V1.3 from 2. September 2016
Отчёт EAC об извлечении, выполненном 7. ноября 2019, 21:54
Ю-ЛА project / Твой Б-52
Дисковод: HL-DT-STDVDRAM GT30N Adapter: 0 ID: 0
Режим чтения : ДостоверностьИспользование точного потока : ДаОтключение кэша аудио : ДаИспользование указателей C2 : Нет
Коррекция смещения при чтении : 103Способность читать области Lead-in и Lead-out : НетЗаполнение пропущенных сэмплов тишиной : ДаУдаление блоков с тишиной в начале и конце : НетПри вычислениях CRC использовались нулевые сэмплы : ДаИнтерфейс : Установленный внешний ASPI-интерфейсОбработка зазоров : Добавлено к предыдущему треку
Выходной формат : Пользовательский кодировщикВыбранный битрейт : 768 kBit/sКачество : ВысокийДобавление ID3-тега : НетУтилита сжатия : TomsLosslessAudioKompressor.exeДополнительные параметры : -e -p4 -md5 -v -tt "Comment=by РУ€_ик for RU_Tracker.org" -tt "DiscID=%cddbid%" -tt "Track=%tracknr2%/%numtracks%" -tt "Artist=%artist%" -tt "Album Artist=%albumartist%" -tt "Title=%title%" -tt "Album=%albumtitle%" -tt "Year=%year%" -tt "Genre=%genre%" %source% %dest%
TOC извлечённого CD
Трек | Старт | Длительность | Начальный сектор | Конечный сектор --------------------------------------------------------------------- 1 | 0:00.00 | 3:30.40 | 0 | 15789 2 | 3:30.40 | 3:36.57 | 15790 | 32046 3 | 7:07.22 | 5:02.38 | 32047 | 54734 4 | 12:09.60 | 4:44.62 | 54735 | 76096 5 | 16:54.47 | 3:34.08 | 76097 | 92154 6 | 20:28.55 | 3:53.35 | 92155 | 109664 7 | 24:22.15 | 4:41.52 | 109665 | 130791 8 | 29:03.67 | 5:09.08 | 130792 | 153974 9 | 34:13.00 | 5:48.57 | 153975 | 180131 10 | 40:01.57 | 6:08.08 | 180132 | 207739
Трек 1
Имя файла C:\!РУ€_ик\01 - Сволочь, у меня мотор.wav
Длина предзазора 0:00:02.00
Пиковый уровень 97.9 % Скорость извлечения 2.6 X Качество трека 100.0 % CRC теста 5BCCFEED CRC копии 5BCCFEED Трек не обнаружен в базе AccurateRip Копирование... OK
Трек 2
Имя файла C:\!РУ€_ик\02 - Нюхали....wav
Длина предзазора 0:00:01.64
Пиковый уровень 98.0 % Скорость извлечения 2.3 X Качество трека 99.9 % CRC теста DB933276 CRC копии DB933276 Трек не обнаружен в базе AccurateRip Копирование... OK
Трек 3
Имя файла C:\!РУ€_ик\03 - Говори.wav
Длина предзазора 0:00:01.66
Пиковый уровень 98.0 % Скорость извлечения 3.2 X Качество трека 100.0 % CRC теста F8366B38 CRC копии F8366B38 Трек не обнаружен в базе AccurateRip Копирование... OK
Трек 4
Имя файла C:\!РУ€_ик\04 - Вася.wav
Длина предзазора 0:00:01.73
Пиковый уровень 98.0 % Скорость извлечения 2.9 X Качество трека 99.9 % CRC теста 6B48C67C CRC копии 6B48C67C Трек не обнаружен в базе AccurateRip Копирование... OK
Трек 5
Имя файла C:\!РУ€_ик\05 - Подвигай.wav
Длина предзазора 0:00:01.62
Пиковый уровень 98.0 % Скорость извлечения 2.8 X Качество трека 99.9 % CRC теста 7C48EB35 CRC копии 7C48EB35 Трек не обнаружен в базе AccurateRip Копирование... OK
Трек 6
Имя файла C:\!РУ€_ик\06 - Б-52.wav
Длина предзазора 0:00:01.70
Пиковый уровень 98.0 % Скорость извлечения 3.6 X Качество трека 100.0 % CRC теста 623DE078 CRC копии 623DE078 Трек не обнаружен в базе AccurateRip Копирование... OK
Трек 7
Имя файла C:\!РУ€_ик\07 - Жду звонка.wav
Длина предзазора 0:00:01.66
Пиковый уровень 97.9 % Скорость извлечения 3.9 X Качество трека 100.0 % CRC теста 54D6E24D CRC копии 54D6E24D Трек не обнаружен в базе AccurateRip Копирование... OK
Трек 8
Имя файла C:\!РУ€_ик\08 - Говори (Triplex remix).wav
Длина предзазора 0:00:01.62
Пиковый уровень 98.0 % Скорость извлечения 3.4 X Качество трека 99.9 % CRC теста B3B48C09 CRC копии B3B48C09 Трек не обнаружен в базе AccurateRip Копирование... OK
Трек 9
Имя файла C:\!РУ€_ик\09 - Нюхали (Smiff remix).wav
Длина предзазора 0:00:01.70
Пиковый уровень 97.9 % Скорость извлечения 0.8 X Качество трека 100.0 % CRC теста 38ED81F5 CRC копии 38ED81F5 Трек не обнаружен в базе AccurateRip Копирование... OK
Трек 10
Имя файла C:\!РУ€_ик\10 - Сволочь (MF mix).wav
Длина предзазора 0:00:01.62
Пиковый уровень 98.0 % Скорость извлечения 4.6 X Качество трека 100.0 % CRC теста 14F54B54 CRC копии 14F54B54 Трек не обнаружен в базе AccurateRip Копирование... OK
Ни одного трека нет в базе AccurateRip
Ошибок не произошло
Конец отчёта
---- CUETools DB Plugin V2.1.6
[CTDB TOCID: MMPYh9Xi0.LWVDvgDBhnJ5R5yVw-] foundSubmit result: MMPYh9Xi0.LWVDvgDBhnJ5R5yVw- has been confirmedTrack | CTDB Status 1 | (1/1) Accurately ripped 2 | (1/1) Accurately ripped 3 | (1/1) Accurately ripped 4 | (1/1) Accurately ripped 5 | (1/1) Accurately ripped 6 | (1/1) Accurately ripped 7 | (1/1) Accurately ripped 8 | (1/1) Accurately ripped 9 | (1/1) Accurately ripped 10 | (1/1) Accurately ripped
==== Контрольная сумма отчёта DE71CEBBCB0225F7ADF071E0DA11250714756812B2BFA63B5D01B9D6F85F8322 ====
-

Индексная карта

REM GENRE "Euro-House, Electronic"REM DATE 1998REM DISCID 640AD10APERFORMER "Ю-ЛА project"TITLE "Твой Б-52"REM COMPOSER ""FILE "01 - Сволочь, у меня мотор.wav" WAVE TRACK 01 AUDIO TITLE "Сволочь, у меня мотор" PERFORMER "Ю-ЛА project" REM COMPOSER "" INDEX 01 00:00:00 TRACK 02 AUDIO TITLE "Нюхали..." PERFORMER "Ю-ЛА project" REM COMPOSER "" INDEX 00 03:28:67FILE "02 - Нюхали....wav" WAVE INDEX 01 00:00:00 TRACK 03 AUDIO TITLE "Говори" PERFORMER "Ю-ЛА project" REM COMPOSER "" INDEX 00 03:35:07FILE "03 - Говори.wav" WAVE INDEX 01 00:00:00 TRACK 04 AUDIO TITLE "Вася" PERFORMER "Ю-ЛА project" REM COMPOSER "" INDEX 00 05:00:58FILE "04 - Вася.wav" WAVE INDEX 01 00:00:00 TRACK 05 AUDIO TITLE "Подвигай" PERFORMER "Ю-ЛА project" REM COMPOSER "" INDEX 00 04:43:15FILE "05 - Подвигай.wav" WAVE INDEX 01 00:00:00 TRACK 06 AUDIO TITLE "Б-52" PERFORMER "Ю-ЛА project" REM COMPOSER "" INDEX 00 03:32:30FILE "06 - Б-52.wav" WAVE INDEX 01 00:00:00 TRACK 07 AUDIO TITLE "Жду звонка" PERFORMER "Ю-ЛА project" REM COMPOSER "" INDEX 00 03:51:60FILE "07 - Жду звонка.wav" WAVE INDEX 01 00:00:00 TRACK 08 AUDIO TITLE "Говори (Triplex remix)" PERFORMER "Ю-ЛА project" REM COMPOSER "" INDEX 00 04:40:05FILE "08 - Говори (Triplex remix).wav" WAVE INDEX 01 00:00:00 TRACK 09 AUDIO TITLE "Нюхали (Smiff remix)" PERFORMER "Ю-ЛА project" REM COMPOSER "" INDEX 00 05:07:30FILE "09 - Нюхали (Smiff remix).wav" WAVE INDEX 01 00:00:00 TRACK 10 AUDIO TITLE "Сволочь (MF mix)" PERFORMER "Ю-ЛА project" REM COMPOSER "" INDEX 00 05:47:10FILE "10 - Сволочь (MF mix).wav" WAVE INDEX 01 00:00:00
[ru-zerkalo.org]_t_5802369
Torrent: Registered ·  [ 2019-11-08 22:33 ] ·  a002c36191854504dca298c28f9a03ef2541b2e7

13 KB

Status: checked
Completed: 2 times
Size: 291 MB
Rating: 
(Votes: 0)
Say thanks: 0  Thanks
 
Похожие темы
[Profile] [PM]

Яков Шпайзман

Longevity: 13 days

Posts: 1

Post 11-Jan-2020 02:00 (after 2 months 2 days)

[Quote]

А есть вообще шанс скачать или можно уже не надеяться?
[Profile] [PM]
Display posts from previous:    
Reply to topic

The time now is: Today 22:26

All times are GMT + 7 Hours



You cannot post new topics in this forum
You cannot reply to topics in this forum
You cannot edit your posts in this forum
You cannot delete your posts in this forum
You cannot vote in polls in this forum
You cannot attach files in this forum
You can download files in this forum