Register · 
Username: Password:
 ·  Forgot password?

(Art-Rock | Noise Rock) [WEB] Moana - In The Allure - 2019, FLAC (tracks), lossless

Reply to topic
DL-List and Torrent activity [Update пиров]
Size:  248 MB   |    Registered:  2 months 12 days   |    Completed:  0 times

Seeder not seen: Never

 
   
 
 
 
Author Message

Andrew1225 ®

Gender:

Longevity: 6 years 3 months

Posts: 17561

Post 11-Nov-2019 20:50

[Quote]



Moana

In The Allure




• Жанр: Art-Rock | Noise Rock
• Носитель: WEB
• Год издания: 2019
• Страна: Australia
• Аудиокодек: FLAC (*.flac)
• Тип рипа: tracks
• Продолжительность: 00:38:37
internet
• Наличие сканов: front
Tracklist:
01 - Smoke That Thunders (00:04:44)
02 - Dracula (00:03:20)
03 - The Cultess (00:03:48)
04 - Scarab (00:04:12)
05 - Sister Winter (00:05:05)
06 - Blood Moon (00:03:56)
07 - Feral Umbilical (00:03:22)
08 - E LIX A (00:04:07)
09 - Promise (00:05:58)
--

• Замер динамического диапазона •

foobar2000 1.4.2 / Dynamic Range Meter 1.1.1log date: 2019-11-09 16:22:26
--------------------------------------------------------------------------------Analyzed: Moana / In The Allure--------------------------------------------------------------------------------
DR Peak RMS Duration Track--------------------------------------------------------------------------------DR7 -0.06 dB -9.37 dB 4:45 01-Smoke That ThundersDR5 -0.31 dB -7.34 dB 3:21 02-DraculaDR6 0.00 dB -7.27 dB 3:48 03-The CultessDR7 0.00 dB -7.99 dB 4:13 04-ScarabDR6 -0.25 dB -9.47 dB 5:06 05-Sister WinterDR7 -0.12 dB -10.38 dB 3:57 06-Blood MoonDR6 -0.22 dB -7.84 dB 3:22 07-Feral UmbilicalDR7 0.00 dB -10.46 dB 4:08 08-E LIX ADR6 -0.02 dB -8.42 dB 5:59 09-Promise--------------------------------------------------------------------------------
Number of tracks: 9Official DR value: DR6
Samplerate: 44100 HzChannels: 2Bits per sample: 16Bitrate: 922 kbpsCodec: FLAC================================================================================
-

• Лог проверки качества •

-----------------------
DON'T MODIFY THIS FILE
-----------------------
PERFORMER: auCDtect Task Manager, ver. 1.6.0 RC1 build 1.6.0.1Copyright (c) 2008-2010 y-soft. All rights reservedhttp://y-soft.org
ANALYZER: auCDtect: CD records authenticity detector, version 0.8.2Copyright (c) 2004 Oleg Berngardt. All rights reserved.Copyright (c) 2004 Alexander Djourik. All rights reserved.
FILE: 09.flac Size: 41387551 Hash: AA659FDBE44F7BE965A9B00AA58B27E1 Accuracy: -m8 Conclusion: CDDA 100% Signature: 1DBFDB693306A47616DF1457FD081F244ED201E9FILE: 08.flac Size: 26238824 Hash: E366AAA74353D10AB1F5A1651680F943 Accuracy: -m8 Conclusion: CDDA 100% Signature: 2987886FF8312C38C28F3C78A58EFA331B1341FCFILE: 07.flac Size: 22991927 Hash: 4C46721A1F0E82D185E9D83D6D35FF81 Accuracy: -m8 Conclusion: CDDA 100% Signature: 6BCF560E9EBF0F122771B1042BCC512826616621FILE: 06.flac Size: 25296882 Hash: 5D7FB62C8C2E54F56B9E8355E65BE3C1 Accuracy: -m8 Conclusion: CDDA 99% Signature: FD2E8452CD98F7B340DA14E12A486FC056506E43FILE: 05.flac Size: 31569328 Hash: DD90155910F806697C3EC3344C696D33 Accuracy: -m8 Conclusion: CDDA 100% Signature: B6758513035DDEF715092D301E40BD3306A40AEAFILE: 04.flac Size: 29238009 Hash: CB09A54A97076DC5245BD1E0EA3A9913 Accuracy: -m8 Conclusion: CDDA 100% Signature: 57785D6A0595CCEFF39BB04173D0AEE6E6B4432BFILE: 03.flac Size: 28791491 Hash: 60E309041D2B8B3A1614DDCB777DD7C0 Accuracy: -m8 Conclusion: CDDA 100% Signature: 6E3066AF3375B43DB74E55B4461E575D06999175FILE: 02.flac Size: 22581462 Hash: E882C7F685427B70F05E111C2FB0DF67 Accuracy: -m8 Conclusion: CDDA 100% Signature: D9510CB6CEEAC5C6BDC2E31FDC6CA967D031045CFILE: 01.flac Size: 30961417 Hash: 3D067826588C55F93A64634E5057C7CF Accuracy: -m8 Conclusion: CDDA 100% Signature: CB0B01F84A809D4A220D2864DA477CC9FEF1A07B
-

• Information •

Moana Mayatrix - lyrics, vocals, harmonies, guitar
Lochlan Hoffmann - drums
Austin Rogers - bass, backing vocals (Blood Moon, Feral Umbilical)
Willow Fearns - guitar (Smoke That Thunders, The Cultess, Blood Moon, E LIX A, Promise)
Mitch Hogan - guitar (Dracula, Sister Winter, Feral Umbilical)
Chris Young - synth (Scarab, E LIX A)
Elise Hiatt - violin (Smoke That Thunders, Blood Moon)
Alexandra Clarke - cello (Smoke That Thunders, Scarab)
Jamie Canny - backing vocals (Blood Moon)
-
[ru-zerkalo.org]_t_5803834
Torrent: Registered ·  [ 2019-11-11 20:50 ] ·  a9c948d6f8562662c47e4d5b2b393f6b65c12bbe

20 KB

Status: checked
Completed: 0 times
Size: 248 MB
Rating: 
(Votes: 0)
Say thanks: 0  Thanks
 
Похожие темы
[Profile] [PM]
Display posts from previous:    
Reply to topic

The time now is: Today 07:11

All times are GMT + 7 Hours



You cannot post new topics in this forum
You cannot reply to topics in this forum
You cannot edit your posts in this forum
You cannot delete your posts in this forum
You cannot vote in polls in this forum
You cannot attach files in this forum
You can download files in this forum