Register · 
Username: Password:
 ·  Forgot password?

[TR24][OF] Hank Jones - Arigato (Remastered) - 1976-2019 (Jazz)

Reply to topic
DL-List and Torrent activity [Update пиров]
Size:  2.74 GB   |    Registered:  1 month   |    Completed:  0 times

Seeder not seen: Never

 
   
 
 
 
Author Message

ANTON1404 ®

Gender:

Longevity: 6 years 2 months

Posts: 18271

Post 12-Nov-2019 02:03

[Quote]

Hank Jones / Arigato
Формат записи/Источник записи: [TR24][OF]
Издание: Remastered
Год издания/переиздания диска: 1976-2019
Жанр: Jazz
Издатель (лейбл): 2xHD
Продолжительность: 00:42:13
Наличие сканов в содержимом раздачи: Буклет PDF
Треклист:
1 - Allen's Alley 04:48
2 - I'm Old Fashioned 05:06
3 - Night Sadness (Notte Trieste) 06:23
4 - Arigato 02:51
5 - Majorca 06:51
6 - What Am I Here for? 04:59
7 - Medley: The Bad and the Beautiful, but Beautiful, You Are Too Beautiful 06:09
8 - Gerry's Blues 05:06
Контейнер: FLAC (*.flac)
Тип рипа: tracks
Разрядность: 24/192
Количество каналов: 2.0

Лог проверки качества

foobar2000 1.3.7 / Dynamic Range Meter 1.1.1log date: 2019-08-13 11:04:31
--------------------------------------------------------------------------------Analyzed: Hank Jones, Ronnie Bedrofd & Richard Davis / Arigato (Remastered)--------------------------------------------------------------------------------
DR Peak RMS Duration Track--------------------------------------------------------------------------------DR13 -3.33 dB -19.38 dB 4:50 01-Allen's AlleyDR14 -4.15 dB -21.62 dB 5:07 02-I'm Old FashionedDR13 -6.87 dB -24.48 dB 6:24 03-Night Sadness (Notte Trieste)DR12 -2.96 dB -18.93 dB 2:52 04-ArigatoDR16 -4.26 dB -22.06 dB 6:51 05-MajorcaDR14 -6.30 dB -23.02 dB 5:00 06-What Am I Here for?DR12 -9.32 dB -24.09 dB 6:09 07-Medley: The Bad and the Beautiful, but Beautiful, You Are Too BeautifulDR14 -5.01 dB -21.44 dB 5:09 08-Gerry's Blues--------------------------------------------------------------------------------
Number of tracks: 8Official DR value: DR13
Samplerate: 192000 HzChannels: 2Bits per sample: 24Bitrate: 9232 kbpsCodec: FLAC================================================================================

Скриншот спектра частот

Источник (релизер): HIGHRESAUDIO

Состав

Hank Jones, piano
Ray Riveram, guitar (tracks 6, 8)
Jay Leonhart, double bass (tracks 5, 7)
Richard Davis, double bass (tracks 1-4, 6 & 8-11)
Ronnie Bedford, drums

Об исполнителе (группе)

http://en.wikipedia.org/wiki/Hank_Jones

Об альбоме (сборнике)

Arigato is an album by pianist Hank Jones recorded in 1976 for the Progressive label. Hank Jones has a reputation for being one of the most flexible and dynamic piano players of the jazz genre. His playing on Arigato is a fantastic example of such and gives the listener insight into Jones’ unparalleled talent. Appearances by Ronnie Bedford on the drums, Jay Leonhart and Richard Davis – both on the bass, and Ray Rivera on guitar help to round out this fantastic 1976 recording.
“Hank Jones is a man of many parts. Even though he is generally classified as a bop specialist, his playing is so flexible that it is open to any type of jazz genre. His playing can be as shimmering as a mountain brook, as fresh as a spring morning, or as sophisticated as a classical performer. He has also developed a reputation as an accomplished and sought-after accompanist for some of the top vocalists of his time. While there’s no singing on this album, the only one he made for the Progressive label, the other realms of Jones’ pianist world are visited, whether it be the jagged bop lines of “Allen’s Alley,” where Ronnie Bedford’s drums are given wide latitude, or a cultivated, almost polite yet swinging “Recapitulation,” where Jay Leonhart’s bass gets the spotlight. Leonhart shows up on two cuts; the other bass belongs to Richard Davis. The Latin beat gets a nod with a relaxing, quiet reading of Gary McFarland’s “Night Sadness (Notte Trieste).” Jones pays homage to one of his more illustrious contemporaries with a magical reading of “What Am I Here For?,” this time featuring Davis’ bass. The trio expands with the addition of guitarist Ray Rivera for “Night Flight to Puerto Rico” and “Majorca.” Over his many years as a performer, Hank Jones has established himself not only as a major force in jazz piano, but also nonpareil when it comes to the piano trio format. This 1976 recording does absolutely nothing to diminish his matchless status in the annals of that combination.” (Dave Nathan, AMG)
[ru-zerkalo.org]_t_5804356
Torrent: Registered ·  [ 2019-11-12 02:03 ] ·  f71b504a640f640fa73dd779d724b89ebcd5bcca

15 KB

Status: checked
Completed: 0 times
Size: 2.74 GB
Rating: 
(Votes: 0)
Say thanks: 0  Thanks
 
Похожие темы
[Profile] [PM]
Display posts from previous:    
Reply to topic

The time now is: Today 21:35

All times are GMT + 7 Hours



You cannot post new topics in this forum
You cannot reply to topics in this forum
You cannot edit your posts in this forum
You cannot delete your posts in this forum
You cannot vote in polls in this forum
You cannot attach files in this forum
You can download files in this forum