Register · 
Username: Password:
 ·  Forgot password?

День зверя / El Día de la bestia / The Day of the Beast (Алекс де ла Иглесия / Álex de la Iglesia) [1995, Италия, Испания, черная комедия,BDRip] AVO (Алексеев) + Sub Rus + Original Spa

Reply to topic
DL-List and Torrent activity [Update пиров]
Size:  1.78 GB   |    Registered:  28 days   |    Completed:  0 times

Seeder not seen: Never

 
   
 
 
 
Author Message

rychkalov ®

Gender:

Longevity: 6 years 2 months

Posts: 18145

Post 14-Nov-2019 00:00

[Quote]

День зверя / El Día de la bestia / The Day of the Beast
Страна: Италия, Испания
Жанр: черная комедия
Год выпуска: 1995
Продолжительность: 01:43:46
Перевод: Авторский (одноголосый закадровый) - Антон Алексеев
Субтитры: русские
Оригинальная дорожка: испанский

Режиссер: Алекс де ла Иглесия / Álex de la Iglesia
В ролях: Алекс Ангуло, Армандо Де Радза, Сантьяго Сегура, Тереле Павес, Натали Сесена, Мария Грация Кучинотта, Джанни Ипполити, Джейм Бленч, Дэвид Пинилья, Антонио Дечент
Описание: Священник католической церкви раскрывает код, который является прямой подсказкой к тому, когда на Землю придёт Антихрист. Рассказав своему церковному боссу об этом, он получает в его лице союзника. Но вот незадача — как только его шеф поднялся, чтобы отправиться вместе со своим верным послушником, на него свалился гигантский крест, стоявший над алтарём. Настоятель был, естественно, раздавлен насмерть. Тогда его ученик, которого звать падре Ангел, в одиночку берётся за разгадку того, кто же этот сын Дьявола.
Сэмпл
Качество видео: BDRip
Формат видео: AVI
Видео: 720x384 (1.88:1), 24 fps, XviD build 73 ~1807 kbps avg, 0.27 bit/pixel
Аудио: 48 kHz, AC3 Dolby Digital, 2/0 (L,R) ch, ~192 kbps - авторский
Аудио: 48 kHz, AC3 Dolby Digital, 3/2 (L,C,R,l,r) + LFE ch, ~448 kbps - оригинал (отдельным файлом)

MediaInfo

Общее
Полное имя : H:\El.Dia.de.la.Bestia.1995.bdrip_[1.46]_[teko]\El.Dia.de.la.Bestia.1995.bdrip_[1.46].avi
Формат : AVI
Формат/Информация : Audio Video Interleave
Размер файла : 1,46 Гбайт
Продолжительность : 1 ч. 43 м.
Общий поток : 2009 Кбит/сек
Программа кодирования : VirtualDubMod 1.5.10.3 | www.virtualdub-fr.org || (build 2550/release)
Библиотека кодирования : VirtualDubMod build 2550/release
Видео
Идентификатор : 0
Формат : MPEG-4 Visual
Профиль формата : Advanced Simple@L5
Параметр BVOP формата : 2
Параметр QPel формата : Нет
Параметр GMC формата : Без точки перехода
Параметр матрицы формата : Выборочная
Идентификатор кодека : XVID
Идентификатор кодека/Подсказка : XviD
Продолжительность : 1 ч. 43 м.
Битрейт : 1808 Кбит/сек
Ширина : 720 пикселей
Высота : 384 пикселя
Соотношение сторон : 1,85:1
Частота кадров : 24,000 кадра/сек
Цветовое пространство : YUV
Субдискретизация насыщенности : 4:2:0
Битовая глубина : 8 бит
Тип развёртки : Прогрессивная
Метод сжатия : С потерями
Бит/(Пиксели*Кадры) : 0.272
Размер потока : 1,31 Гбайт (90%)
Библиотека кодирования : XviD 73
Аудио
Идентификатор : 1
Формат : AC-3
Формат/Информация : Audio Coding 3
Расширение режима : CM (complete main)
Параметр Endianness формата : Big
Идентификатор кодека : 2000
Продолжительность : 1 ч. 43 м.
Вид битрейта : Постоянный
Битрейт : 192 Кбит/сек
Каналы : 2 канала
Расположение каналов : Front: L R
Частота : 48,0 КГц
Битовая глубина : 16 бит
Метод сжатия : С потерями
Размер потока : 142 Мбайт (10%)
Выравнивание : Разделение по промежуткам
Продолжительность промежутка : 42 мс. (1,00 видеокадр)
Время предзагрузки промежутка : 500 мс.
:
--
[ru-zerkalo.org]_t_3538026
Torrent: Registered ·  [ 2019-11-14 00:00 ] ·  d8316ed8e36cde8baa4abfaaf8fba7c59636bb64

19 KB

Status: checked
Completed: 0 times
Size: 1.78 GB
Rating: 
(Votes: 0)
Say thanks: 0  Thanks
 
Похожие темы
[Profile] [PM]
Display posts from previous:    
Reply to topic

The time now is: Today 21:38

All times are GMT + 7 Hours



You cannot post new topics in this forum
You cannot reply to topics in this forum
You cannot edit your posts in this forum
You cannot delete your posts in this forum
You cannot vote in polls in this forum
You cannot attach files in this forum
You can download files in this forum