Register · 
Username: Password:
 ·  Forgot password?

[VIDEO4PS3] Исчезновение Харухи Сузумии / Haruhi Suzumiya no Shooshitsu [Хардсаб] [2010, приключения, школа, фантастика, BDRip, 1080p]

Reply to topic
DL-List and Torrent activity [Update пиров]
Size:  3.21 GB   |    Registered:  2 years 6 months   |    Completed:  0 times

Seeder not seen: Never

 
   
 
 
 
Author Message

rychkalov ®

Gender:

Longevity: 6 years 2 months

Posts: 18145

Post 21-May-2017 21:51

[Quote]

Исчезновение Харухи Сузумии / Haruhi Suzumiya no Shooshitsu
Год выпуска: 2010
Страна: Япония
Жанр: приключения, школа, фантастика
Продолжительность: 02:41:47
Описание: На дворе стояло промозглое зимнее утро. Самый обыкновенный старшеклассник Кён проводил утренние процедуры без каких-либо отклонений от нормы. Будильник был все таким же наглым и бессердечным, лицо в зеркале над раковиной отнюдь не лучилось бодростью и весельем, а возвышенность, на которой располагалась школа, по-прежнему хладнокровно испытывала школьников на выносливость.
И все же что-то в тот день было не так: странности начались с обмолвки Танигути о вещах, весьма озадачивших Кёна... Впрочем, наш герой с легкостью списал недоразумение на тараканов в голове давнего приятеля, коих по обыкновению водилось у него немало. Но самое интересное ждало его впереди. Придя в школу, юный ворчун с удивлением обнаружил на месте Харухи Судзумии... Рёко Асакуру. О том, что еще вчера с ними училась совсем другая барышня, помнил, конечно, только главный герой.
Да, вы все правильно поняли: главным событием того памятного дня стала пропажа юной богини… Чем закончилась вся эта жутко таинственная история, узнаете сами, посмотрев новое творение Kyoto Animation!
© Алексей Мелихов, World Art
Качество: BDRip
Формат: MP4
Видео кодек: H.264
Аудио кодек: AAC
Видео: MPEG4 Video (H264) 1920x1080 23.98fps (~2709 kbps)
Аудио: AAC 48000Hz stereo (VBR ~129 kbps)
Конвертировал для себя, ибо такую вещь хотелось смотреть на телевизоре, а подключать к нему РС - банально впадло, и расстояние не располагает. Решил поделиться.
Скорость отдачи 50-100 кбс, серый айпи.
Сканы полиграфии BD и буклета можно скачать здесь

Подробные тех.данные via MediaInfo

Video
ID : 1
Format : AVC
Format/Info : Advanced Video Codec
Format profile : High@L4.1
Format settings, CABAC : Yes
Format settings, ReFrames : 3 frames
Codec ID : avc1
Codec ID/Info : Advanced Video Coding
Duration : 2h 41mn
Bit rate mode : Variable
Bit rate : 2 709 Kbps
Maximum bit rate : 24.7 Mbps
Width : 1 920 pixels
Height : 1 080 pixels
Display aspect ratio : 16:9
Frame rate mode : Constant
Frame rate : 23.976 fps
Color space : YUV
Chroma subsampling : 4:2:0
Bit depth : 8 bits
Scan type : Progressive
Bits/(Pixel*Frame) : 0.054
Stream size : 3.06 GiB (95%)
Writing library : x264 core 65 r999kMod cc51047
Encoding settings : cabac=1 / ref=3 / deblock=1:0:0 / analyse=0x3:0x133 / me=umh / subme=6 / psy_rd=1.0:0.0 / mixed_ref=1 / me_range=16 / chroma_me=1 / trellis=1 / 8x8dct=1 / cqm=0 / deadzone=21,11 / chroma_qp_offset=-2 / threads=2 / thread_queue=2 / nr=0 / decimate=1 / mbaff=0 / bframes=3 / b_pyramid=1 / b_adapt=1 / b_bias=0 / direct=1 / wpredb=1 / keyint=250 / keyint_min=25 / scenecut=40(pre) / rc=crf / crf=21.0000 / qcomp=0.60 / qpmin=10 / qpmax=51 / qpstep=4 / ip_ratio=1.40 / pb_ratio=1.30 / aq=1:1.00
Encoded date : UTC 2010-12-19 21:47:46
Tagged date : UTC 2010-12-19 21:51:38
Audio
ID : 2
Format : AAC
Format/Info : Advanced Audio Codec
Format version : Version 4
Format profile : LC
Format settings, SBR : No
Codec ID : 40
Duration : 2h 41mn
Bit rate mode : Variable
Bit rate : 129 Kbps
Maximum bit rate : 187 Kbps
Channel(s) : 2 channels
Channel positions : Front: L R
Sampling rate : 48.0 KHz
Stream size : 149 MiB (5%)
Encoded date : UTC 2010-12-19 21:51:25
Tagged date : UTC 2010-12-19 21:51:38

Скриншоты

[ru-zerkalo.org]_t_3328056
Torrent: Registered ·  [ 2017-05-21 21:45 ] ·  a740a8cf82c2017e52881c183df317a098ba848e

17 KB

Status: checked
Completed: 0 times
Size: 3.21 GB
Rating: 
(Votes: 0)
Say thanks: 0  Thanks
 
Похожие темы
[Profile] [PM]
Display posts from previous:    
Reply to topic

The time now is: Today 21:34

All times are GMT + 7 Hours



You cannot post new topics in this forum
You cannot reply to topics in this forum
You cannot edit your posts in this forum
You cannot delete your posts in this forum
You cannot vote in polls in this forum
You cannot attach files in this forum
You can download files in this forum