Register · 
Username: Password:
 ·  Forgot password?

(Hard \'n\' Heavy) [CD] Phil Campbell - Old Lions Still Roar - 2019, FLAC (image+.cue), lossless

Reply to topic
DL-List and Torrent activity [Update пиров]
Size:  390 MB   |    Registered:  1 month 27 days   |    Completed:  1 time

Seeder not seen: 1 month 18 days

 
   
 
 
 
Author Message

manic-manic ®

Gender:

Longevity: 6 years 3 months

Posts: 14161

Post 21-Nov-2019 16:18

[Quote]

Phil Campbell / Old Lions Still Roar
Жанр: Hard 'n' Heavy
Носитель: CD
Страна-производитель диска (релиза): Russia
Год издания: 2019
Издатель (лейбл): Nuclear Blast/ Soyuz Music
Номер по каталогу: NB 4907-2, 27361 49072
Страна исполнителя (группы): Pontypridd, Wales, UK
Аудиокодек: FLAC (*.flac)
Тип рипа: image+.cue
Продолжительность: 00:41:26
Источник: свой рип
Наличие сканов в содержимом раздачи: да

01. Rocking Chair (4:26)
02. Straight Up (4:30)
03. Faith In Fire (3:55)
04. Swing It (3:53)
05. Left For Dead (5:25)
06. Walk The Talk (3:59)
07. These Old Boots (5:07)
08. Dancing Dogs (Love Survives) (3:28)
09. Dead Roses (4:02)
10. Tears From A Glass Eye (2:42)

Лог создания рипа

Exact Audio Copy V1.3 from 2. September 2016
EAC extraction logfile from 20. November 2019, 15:41
Phil Campbell / Old Lions Still Roar
Used drive : ASUS DRW-24D5MT Adapter: 1 ID: 1
Read mode : SecureUtilize accurate stream : YesDefeat audio cache : YesMake use of C2 pointers : No
Read offset correction : 6Overread into Lead-In and Lead-Out : NoFill up missing offset samples with silence : YesDelete leading and trailing silent blocks : NoNull samples used in CRC calculations : YesUsed interface : Installed external ASPI interface
Used output format : User Defined EncoderSelected bitrate : 128 kBit/sQuality : HighAdd ID3 tag : NoCommand line compressor : C:\Program Files (x86)\Exact Audio Copy\Flac\flac.exeAdditional command line options : -8 -V -T "TITLE=%title%" -T "ARTIST=%artist%" -T "ALBUMARTIST=%albumartist%" -T "ALBUM=%albumtitle%" -T "DATE=%year%" -T "TRACKNUMBER=%tracknr%" -T "TRACKTOTAL=%numtracks%" -T "GENRE=%genre%" -T "COMMENT=%comment%" -T "PERFORMER=%albuminterpret%" -T "COMPOSER=%composer%" %source% -o %dest%
TOC of the extracted CD
Track | Start | Length | Start sector | End sector --------------------------------------------------------- 1 | 0:00.00 | 4:26.35 | 0 | 19984 2 | 4:26.35 | 4:29.55 | 19985 | 40214 3 | 8:56.15 | 3:55.10 | 40215 | 57849 4 | 12:51.25 | 3:53.02 | 57850 | 75326 5 | 16:44.27 | 5:24.58 | 75327 | 99684 6 | 22:09.10 | 3:58.66 | 99685 | 117600 7 | 26:08.01 | 5:06.44 | 117601 | 140594 8 | 31:14.45 | 3:27.63 | 140595 | 156182 9 | 34:42.33 | 4:02.00 | 156183 | 174332 10 | 38:44.33 | 2:42.00 | 174333 | 186482
Range status and errors
Selected range
Filename C:\Users\breaker65\Desktop\2019. Old Lions Still Roar\Phil Campbell - Old Lions Still Roar.wav
Peak level 96.7 % Extraction speed 1.7 X Range quality 100.0 % Test CRC 57464369 Copy CRC 57464369 Copy OK
No errors occurred
AccurateRip summary
Track 1 not present in databaseTrack 2 not present in databaseTrack 3 not present in databaseTrack 4 not present in databaseTrack 5 not present in databaseTrack 6 not present in databaseTrack 7 not present in databaseTrack 8 not present in databaseTrack 9 not present in databaseTrack 10 not present in database
None of the tracks are present in the AccurateRip database
End of status report
---- CUETools DB Plugin V2.1.6
[CTDB TOCID: HjsSxJmV1YLSJyGeaGDs9KBgOVk-] foundSubmit result: HjsSxJmV1YLSJyGeaGDs9KBgOVk- has been confirmedTrack | CTDB Status 1 | (22/22) Accurately ripped 2 | (22/22) Accurately ripped 3 | (22/22) Accurately ripped 4 | (22/22) Accurately ripped 5 | (22/22) Accurately ripped 6 | (22/22) Accurately ripped 7 | (22/22) Accurately ripped 8 | (22/22) Accurately ripped 9 | (22/22) Accurately ripped 10 | (22/22) Accurately ripped
==== Log checksum 3F0D7C0572852285752CE0DC0E4CA7EC0995E11D5D2C309991AE283FF8C28D42 ====

Содержание индексной карты (.CUE)

REM GENRE "Hard Rock"REM DATE 2019REM DISCID 8009B60AREM COMMENT "ExactAudioCopy v1.3"PERFORMER "Phil Campbell"TITLE "Old Lions Still Roar"REM COMPOSER ""FILE "Phil Campbell - Old Lions Still Roar.flac" WAVE TRACK 01 AUDIO TITLE "Rocking Chair" PERFORMER "Phil Campbell" REM COMPOSER "" INDEX 01 00:00:00 TRACK 02 AUDIO TITLE "Straight Up" PERFORMER "Phil Campbell" REM COMPOSER "" INDEX 00 04:24:53 INDEX 01 04:26:35 TRACK 03 AUDIO TITLE "Faith In Fire" PERFORMER "Phil Campbell" REM COMPOSER "" INDEX 00 08:54:33 INDEX 01 08:56:15 TRACK 04 AUDIO TITLE "Swing It" PERFORMER "Phil Campbell" REM COMPOSER "" INDEX 00 12:49:43 INDEX 01 12:51:25 TRACK 05 AUDIO TITLE "Left For Dead" PERFORMER "Phil Campbell" REM COMPOSER "" INDEX 00 16:42:45 INDEX 01 16:44:27 TRACK 06 AUDIO TITLE "Walk The Talk" PERFORMER "Phil Campbell" REM COMPOSER "" INDEX 00 22:07:28 INDEX 01 22:09:10 TRACK 07 AUDIO TITLE "These Old Boots" PERFORMER "Phil Campbell" REM COMPOSER "" INDEX 00 26:06:19 INDEX 01 26:08:01 TRACK 08 AUDIO TITLE "Dancing Dogs (Love Survives)" PERFORMER "Phil Campbell" REM COMPOSER "" INDEX 00 31:12:63 INDEX 01 31:14:45 TRACK 09 AUDIO TITLE "Dead Roses" PERFORMER "Phil Campbell" REM COMPOSER "" INDEX 00 34:40:51 INDEX 01 34:42:33 TRACK 10 AUDIO TITLE "Tears From A Glass Eye" PERFORMER "Phil Campbell" REM COMPOSER "" INDEX 00 38:42:51 INDEX 01 38:44:33

Об альбоме (сборнике)

Второй сольный альбом британского музыканта, бывшего гитариста группы Motorhead. Некоторые люди просто не нуждаются в представлении. И этот прекрасный джентльмен стоит на первом месте в этом списке: Фил Кэмпбелл, валлийский рок-титан, гитарист MOTÖRHEAD более 30 лет до самого конца, отец этого жесткого рок-порождения под названием BASTARD SONS, рок-н-ролльный светил. Одним словом: материал, из которого сделаны шесть струнных легенд. Медленно, но неуклонно приближаясь к шестидесятым годам, Фил Кэмпбелл все еще не утратил чувство голода. После очень успешной записи PHIL CAMPBELL AND BASTARD SONS и лихорадочной серии живых выступлений с такими, как GUNS`N`ROSES, он собирается сбросить свою кожу еще раз чтобы раскрыть свою истинную сущность на этот раз.

Название его первой сольной записи? «Старые львы все еще рычат». О да, мистер Кэмпбелл, И решительно больше, чем детёныши. Кэмпбелл, вооруженный арсеналом жестоких риффов, нагнетания энергии и безжалостного твердого качающегося топлива, подчеркивает свою репутацию одного из самых ярких хранителей породы. Привлекая множество звездных звездных гостей для участия в том, что легко является не только самым ожидаемым сольным дебютом последних времен, но и тем, что превосходит все ожидания, Кэмпбелл теперь пожинает урожай. Скромный валлийский парень, который он есть, конечно, пытается все объяснить. «Я просто хотел сделать хороший альбом», он пожимает плечами. Заметьте, в новом альбоме засветились такие звезды по метал-цеху, как Роб Хэлфорд (JUDAS PRIEST), Бен Уорд (ORANGE GOBLIN), Элис Купер, Ник Оливери (MONDO GENERATOR) или Ди Снайдер (TWISTED SISTER).
Российское издание доступно на CD с 16-страничным буклетом.

Line-up / Musicians:
01. Rocking Chair
– Todd Campbell / Acoustic Guitar (adittional)
– Phil Campbell / Acoustic Guitar, Slide Guitar, Piano
– Leon Stanford / Vocals

02. Straight Up
– Tyla Campbell / Bass Guitar
– Dane Campbell / Drums
– Phil Campbell / Guitar
– Rob Halford / Vocals

03. Faith In Fire
– Tim Atkinson / Bass Guitar
– Robyn Griffith / Drums
– Phil Campbell / Guitar
– Ben Ward / Vocals

04. Swing It
– Dane Campbell / Drums
– Alice Cooper / Vocals
– Chuck Garric / Bass, Backing Vocals
– Phil Campbell / Guitar, Piano

05. Left For Dead
– Tyla Campbell / Acoustic Guitar
– Mark King / Bass Guitar
– Dane Campbell / Drums
– Danny Owen / Keyboards
– Phil Campbell / Electric Guitar, Piano
– Nev Macdonald / Vocals

06. Walk The Talk
– Ray Luzier / Drums
– Phil Campbell / Guitar
– Danko Jones / Vocals
– Nick Oliveri / Vocals, Bass Guitar

07. These Old Boots
– Chris Fehn / Drums
– Mick Mars / Guitar
– Todd Campbell /Guitar [Additional]
– Phil Campbell / Guitar, Bass Guitar, Backing Vocals
– Dee Snider / Vocals

08. Dancing Dogs (Love Survives)
– Tyla Campbell / Bass Guitar
– Dane Campbell /Drums
– Phil Campbell / Guitar
– Whitfield Crane / Vocals

09. Dead Roses
– Matt Sorum / Drums
– Phil Campbell / Piano, Guitar
– Benji Webbe / Vocals

10. Tears From A Glass Eye
– Joe Satriani / Instruments [Everything Else]
– Phil Campbell / Piano, Electric Guitar

Producer, Mixed By – Todd Campbell
Official DR value: 6
philcampbell.net
[ru-zerkalo.org]_t_5808595
Torrent: Registered ·  [ 2019-11-21 16:18 ] ·  03687eeed07b236e42947a29f9c184cb98153732

32 KB

Status: checked
Completed: 1 times
Size: 390 MB
Rating: 
(Votes: 0)
Say thanks: 0  Thanks
 
Похожие темы
[Profile] [PM]
Display posts from previous:    
Reply to topic

The time now is: Today 02:14

All times are GMT + 7 Hours



You cannot post new topics in this forum
You cannot reply to topics in this forum
You cannot edit your posts in this forum
You cannot delete your posts in this forum
You cannot vote in polls in this forum
You cannot attach files in this forum
You can download files in this forum