Register · 
Username: Password:
 ·  Forgot password?

Нимфа / Nang mai / Nymph (Пен-Ек Ратанаруанг / Pen-Ek Ratanaruang) [2009, Таиланд, драма, мистика, триллер, DVDRip] VO (Олег Воротилин) + Original Tha

Reply to topic
DL-List and Torrent activity [Update пиров]
Size:  1.78 GB   |    Registered:  20 days   |    Completed:  0 times

Seeder not seen: Never

 
   
 
 
 
Author Message

rychkalov ®

Gender:

Longevity: 6 years 2 months

Posts: 18145

Post 22-Nov-2019 00:43

[Quote]

Нимфа / Nang mai / Nymph
Страна: Таиланд
Жанр: драма, мистика, триллер
Год выпуска: 2009
Продолжительность: 01:31:40
Перевод: Одноголосый закадровый Олег Воротилин по субтитрам badsteel
Субтитры: нет
Оригинальная аудиодорожка: тайская
Режиссер: Пен-Ек Ратанаруанг / Pen-Ek Ratanaruang
В ролях: Ванида Термтанапорн / Wanida Termthanaporn, Яянама Нопачай / Nopachai Jayanama, Чаманун Ванвинватсара / Chamanun Wanwinwasara, Порнтип Папанай / Phorntip Papanai
Описание: Мэй — жительница большого города, у которой есть все, о чем только можно мечтать: ее карьера на подъеме, а муж Ноп, профессиональный фотограф, окутывает ее любовью и вниманием. Однажды Ноп получает заказ на натурные съемки в лесу и решает взять с собой Мэй. Когда в один из дней муж не возвращается в палатку, Мэй отправляется на его поиски, но находит лишь его сандалию и сотовый телефон. Однако, вернувшись домой, она обнаруживает, что Ноп нашелся, но лес изменил его, и возможно, навсегда…
Доп. информация: http://www.imdb.com/title/tt1424366/ 6.6/10 79 votes
Awards: 1 win & 1 nomination
Сэмпл: http://yadi.sk/i/WCzbgZgKP9jXqA
Качество видео: DVDRip
Формат видео: AVI
Видео: XviD 720x400 (16:9) 25.000 1879 kb/s 0.261 bpp
Аудио 1: Dolby AC3 48000 Hz 448 kb/s 6 channel(s) CBR русский
Аудио 2: Dolby AC3 48000 Hz 448 kb/s 6 channel(s) CBR тайский (отдельным файлом)

MediaInfo

ОбщееПолное имя : E:\Видео\ы\Нимф\Нимфа.aviФормат : AVIФормат/Информация : Audio Video InterleaveРазмер файла : 1,50 ГбайтПродолжительность : 1 ч. 31 м.Общий поток : 2336 Кбит/секПрограмма кодирования : VirtualDubMod 1.5.10.2 (build 2542/release)Библиотека кодирования : VirtualDubMod build 2542/release
ВидеоИдентификатор : 0Формат : MPEG-4 VisualПрофиль формата : Advanced Simple@L5Параметр BVOP формата : 2Параметр QPel формата : НетПараметр GMC формата : Без точки переходаПараметр матрицы формата : Default (MPEG)Идентификатор кодека : XVIDИдентификатор кодека/Подсказка : XviDПродолжительность : 1 ч. 31 м.Битрейт : 1879 Кбит/секШирина : 720 пикселейВысота : 400 пикселейСоотношение сторон : 16:9Частота кадров : 25,000 кадров/секЦветовое пространство : YUVСубдискретизация насыщенности : 4:2:0Битовая глубина : 8 битТип развёртки : ПрогрессивнаяМетод сжатия : С потерямиБит/(Пиксели*Кадры) : 0.261Размер потока : 1,20 Гбайт (80%)Библиотека кодирования : XviD 63
АудиоИдентификатор : 1Формат : AC-3Формат/Информация : Audio Coding 3Расширение режима : CM (complete main)Параметр Endianness формата : BigИдентификатор кодека : 2000Продолжительность : 1 ч. 31 м.Вид битрейта : ПостоянныйБитрейт : 448 Кбит/секКаналы : 6 каналовРасположение каналов : Front: L C R, Side: L R, LFEЧастота : 48,0 КГцЧастота кадров : 31,250 кадров/сек (1536 spf)Битовая глубина : 16 битМетод сжатия : С потерямиРазмер потока : 293 Мбайт (19%)Выравнивание : Разделение по промежуткамПродолжительность промежутка : 40 мс. (1,00 видеокадр)Время предзагрузки промежутка : 500 мс.

Скриншот c названием фильма

Скриншоты





найден в сети
[ru-zerkalo.org]_t_5808295
Torrent: Registered ·  [ 2019-11-22 00:43 ] ·  99bcf0386388161b56e25ae8d4c18ed1e98578ad

18 KB

Status: checked
Completed: 0 times
Size: 1.78 GB
Rating: 
(Votes: 0)
Say thanks: 0  Thanks
 
Похожие темы
[Profile] [PM]
Display posts from previous:    
Reply to topic

The time now is: Today 21:36

All times are GMT + 7 Hours



You cannot post new topics in this forum
You cannot reply to topics in this forum
You cannot edit your posts in this forum
You cannot delete your posts in this forum
You cannot vote in polls in this forum
You cannot attach files in this forum
You can download files in this forum