Register · 
Username: Password:
 ·  Forgot password?

(Hard & Heavy) [CD] Uli Jon Roth - Scorpions Revisited (Japan 2CD) - 2015, FLAC (image+.cue), lossless

Reply to topic
DL-List and Torrent activity [Update пиров]
Size:  857 MB   |    Registered:  1 month 26 days   |    Completed:  1 time

Seeder not seen: 1 month 19 days

 
   
 
 
 
Author Message

manic-manic ®

Gender:

Longevity: 6 years 3 months

Posts: 14161

Post 22-Nov-2019 14:01

[Quote]

Uli Jon Roth / Scorpions Revisited (Japan 2CD)
Жанр: Hard & Heavy
Носитель: CD
Страна-производитель диска (релиза): Япония
Год издания: 2015
Издатель (лейбл): Marquee Inc. (Avalon)
Номер по каталогу: MICP-90081
Страна исполнителя (группы): Германия
Аудиокодек: FLAC (*.flac)
Тип рипа: image+.cue
Продолжительность: 00:53:43 + 01:00:59
Источник: собственный рип
Наличие сканов в содержимом раздачи: нет

Disc 1

01 - The Sails of Charon (8:50)
02 - Longing For Fire (2:50)
03 - Crying Days (5:35)
04 - Virgin Killer (3:58)
05 - In Trance (6:39)
06 - Sun In My Hand (4:48)
07 - Yellow Raven (4:50)
08 - Polar Nights (7:35)
09 - Dark Lady (8:19)

Лог создания рипа

Exact Audio Copy V1.3 from 2. September 2016
Отчёт EAC об извлечении, выполненном 21. ноября 2019, 20:23
Uli Jon Roth / Scorpions Revisited (CD1)
Дисковод: TS8XDVDSTRANSCEND Adapter: 1 ID: 1
Режим чтения : ДостоверностьИспользование точного потока : ДаОтключение кэша аудио : ДаИспользование указателей C2 : Нет
Коррекция смещения при чтении : 6Способность читать области Lead-in и Lead-out : НетЗаполнение пропущенных сэмплов тишиной : ДаУдаление блоков с тишиной в начале и конце : НетПри вычислениях CRC использовались нулевые сэмплы : ДаИнтерфейс : Встроенный Win32-интерфейс для Win NT/2000
Выходной формат : Пользовательский кодировщикВыбранный битрейт : 896 kBit/sКачество : ВысокийДобавление ID3-тега : НетУтилита сжатия : C:\Program Files (x86)\Exact Audio Copy\Flac\flac.exeДополнительные параметры : -V -8 -T "Date=%year%" -T "Genre=%genre%" %source%
TOC извлечённого CD
Трек | Старт | Длительность | Начальный сектор | Конечный сектор --------------------------------------------------------------------- 1 | 0:00.00 | 8:52.73 | 0 | 39972 2 | 8:52.73 | 2:52.16 | 39973 | 52888 3 | 11:45.14 | 5:37.27 | 52889 | 78190 4 | 17:22.41 | 4:00.00 | 78191 | 96190 5 | 21:22.41 | 6:41.36 | 96191 | 126301 6 | 28:04.02 | 4:50.15 | 126302 | 148066 7 | 32:54.17 | 4:52.23 | 148067 | 169989 8 | 37:46.40 | 7:37.34 | 169990 | 204298 9 | 45:23.74 | 8:19.05 | 204299 | 241728
Характеристики диапазона извлечения и сообщения об ошибках
Выбранный диапазон
Имя файла E:\_Альбомы-раздачи lossless\Uli Jon Roth-2015-Scorpions Revisited (2CD, Japan)\CD1\Uli Jon Roth - Scorpions Revisited (CD1).wav
Пиковый уровень 99.9 % Скорость извлечения 1.5 X Качество диапазона 99.9 % CRC теста 3403B5BC CRC копии 3403B5BC Копирование... OK
Ошибок не произошло
AccurateRip: сводка
Трек 1 : извлечено точно (доверие 8) [2B87E7EA] (AR v2)Трек 2 : извлечено точно (доверие 8) [0F79D080] (AR v2)Трек 3 : извлечено точно (доверие 8) [7556F48A] (AR v2)Трек 4 : извлечено точно (доверие 8) [BF4939E4] (AR v2)Трек 5 : извлечено точно (доверие 8) [ADDF8265] (AR v2)Трек 6 : извлечено точно (доверие 8) [3B4E9780] (AR v2)Трек 7 : извлечено точно (доверие 8) [906E1052] (AR v2)Трек 8 : извлечено точно (доверие 8) [DFE84451] (AR v2)Трек 9 : извлечено точно (доверие 7) [86047288] (AR v2)
Все треки извлечены точно
Конец отчёта
==== Контрольная сумма отчёта C0EC51744DDF023202941ACB16E50EF23E9073BECCB195150E20B07752C1E1B9 ====

Disc 2

01 - Catch Your Train (3:16)
02 - Evening Wind (5:39)
03 - All Night Long (3:11)
04 - We'll Burn The Sky (8:33)
05 - Pictured Life (3:12)
06 - Hell-Cat (3:00)
07 - Life's Like A River (3:05)
08 - Drifting Sun (6:41)
09 - Rainbow Dream Prelude (4:00)
10 - Fly To The Rainbow (11:35)
11 - I've Got To Be Free (8:16) (Japan bonus track)

Лог создания рипа

Exact Audio Copy V1.3 from 2. September 2016
Отчёт EAC об извлечении, выполненном 21. ноября 2019, 21:08
Uli Jon Roth / Scorpions Revisited (CD2)
Дисковод: TS8XDVDSTRANSCEND Adapter: 1 ID: 1
Режим чтения : ДостоверностьИспользование точного потока : ДаОтключение кэша аудио : ДаИспользование указателей C2 : Нет
Коррекция смещения при чтении : 6Способность читать области Lead-in и Lead-out : НетЗаполнение пропущенных сэмплов тишиной : ДаУдаление блоков с тишиной в начале и конце : НетПри вычислениях CRC использовались нулевые сэмплы : ДаИнтерфейс : Встроенный Win32-интерфейс для Win NT/2000
Выходной формат : Пользовательский кодировщикВыбранный битрейт : 896 kBit/sКачество : ВысокийДобавление ID3-тега : НетУтилита сжатия : C:\Program Files (x86)\Exact Audio Copy\Flac\flac.exeДополнительные параметры : -V -8 -T "Date=%year%" -T "Genre=%genre%" %source%
TOC извлечённого CD
Трек | Старт | Длительность | Начальный сектор | Конечный сектор --------------------------------------------------------------------- 1 | 0:00.00 | 3:19.09 | 0 | 14933 2 | 3:19.09 | 5:41.57 | 14934 | 40565 3 | 9:00.66 | 3:14.20 | 40566 | 55135 4 | 12:15.11 | 8:35.64 | 55136 | 93824 5 | 20:51.00 | 3:15.20 | 93825 | 108469 6 | 24:06.20 | 3:03.55 | 108470 | 122249 7 | 27:10.00 | 3:08.22 | 122250 | 136371 8 | 30:18.22 | 6:44.06 | 136372 | 166677 9 | 37:02.28 | 4:00.24 | 166678 | 184701 10 | 41:02.52 | 11:39.64 | 184702 | 237190 11 | 52:42.41 | 8:16.63 | 237191 | 274453
Характеристики диапазона извлечения и сообщения об ошибках
Выбранный диапазон
Имя файла E:\_Альбомы-раздачи lossless\Uli Jon Roth-2015-Scorpions Revisited (2CD, Japan)\CD2\Uli Jon Roth - Scorpions Revisited (CD2).wav
Пиковый уровень 99.9 % Скорость извлечения 4.4 X Качество диапазона 100.0 % CRC теста 676876FE CRC копии 676876FE Копирование... OK
Ошибок не произошло
AccurateRip: сводка
Трек 1 : извлечено точно (доверие 10) [48DF20D8] (AR v2)Трек 2 : извлечено точно (доверие 10) [E450B940] (AR v2)Трек 3 : извлечено точно (доверие 10) [C57F7612] (AR v2)Трек 4 : извлечено точно (доверие 10) [D49ABD75] (AR v2)Трек 5 : извлечено точно (доверие 10) [A77FE42D] (AR v2)Трек 6 : извлечено точно (доверие 10) [FAF3EFBC] (AR v2)Трек 7 : извлечено точно (доверие 10) [CB97E146] (AR v2)Трек 8 : извлечено точно (доверие 10) [49019750] (AR v2)Трек 9 : извлечено точно (доверие 10) [155448A5] (AR v2)Трек 10 : извлечено точно (доверие 10) [81365275] (AR v2)Трек 11 : извлечено точно (доверие 9) [6840E773] (AR v2)
Все треки извлечены точно
Конец отчёта
==== Контрольная сумма отчёта A6C62A5A7C367E56631DDA0FA6533EAE50B13D877DAC2FB2CA7B73062B4BADF0 ====

Об исполнителе (группе)

Ульрих Рот (нем. Ulrich Roth или Ули Йон Рот, нем. Uli Jon Roth) — немецкий хард-рок и хэви-метал гитарист, бывший участник группы SCORPIONS и основатель групп DAWN ROAD, Electric Sun. По версии журнала Classic Rock входит в список величайших гитаристов всех времен. Ульрих Рот родился 18 декабря 1954 года в Дюссельдорфе (Германия). До 1973 года Рот играл вместе с Фрэнсисом Бухгольцем и Юргеном Розенталем в гамбургской группе DAWN ROAD, исполнявшей прогрессивный рок под влиянием EMERSON, LAKE & PALMER . В 1973 году Ули Рот и почти вся DAWN ROAD оказались в составе SCORPIONS, заменив Майкла Шенкера и еще нескольких ушедших музыкантов.

Об альбоме (сборнике)

В 2014г. Ули Йон Рот выпустил альбом "Scorpions Revisited" (UDR 0507 2CD), в который вошли композиции периода, когда Ули Йон Рот занимал место гитариста в группе Scorpions (это было в далекие 70-е).

Состав

Состав:
Uli Jon Roth - Guitars, Vocals
Nathan James - Vocals
Niklas Turmann - Guitar, Vocals
Jamie Little - Drums
Ule W. Ritgen - Bass
Corvin Bahn - Keyboards
David Klosinski - Guitars
Liz Vandall - vocals on "Pictured Life"

Фото диска

Доп. информация

Рип с японских компакт-дисков, изданных компанией Marquee Inc. (Avalon) по лицензии Sky Productions, MICP-90081, дата релиза 14.01.2015г. Отличаются великолепнейшим бонус-треком.
Ссылка на дискогс: http://www.discogs.com/Uli-Jon-Roth-Scorpions-Revisited/release/7983877
[ru-zerkalo.org]_t_5808957
Torrent: Registered ·  [ 2019-11-22 14:01 ] ·  6795530aaf76d4fe131d394b192f453f3222592e

18 KB

Status: checked
Completed: 1 times
Size: 857 MB
Rating: 
(Votes: 0)
Say thanks: 0  Thanks
 
Похожие темы
[Profile] [PM]
Display posts from previous:    
Reply to topic

The time now is: Today 02:14

All times are GMT + 7 Hours



You cannot post new topics in this forum
You cannot reply to topics in this forum
You cannot edit your posts in this forum
You cannot delete your posts in this forum
You cannot vote in polls in this forum
You cannot attach files in this forum
You can download files in this forum