Register · 
Username: Password:
 ·  Forgot password?

Дни Ада / Адские дни / Days of Hell / I giorni dell\'inferno (Тонино Риччи / Tonino Ricci) [1986, Италия, Филиппины, боевик, VHSRip] VO (Matosono) + Sub Jpn + Original Eng

Reply to topic
DL-List and Torrent activity [Update пиров]
Size:  1 GB   |    Registered:  2 months 1 day   |    Completed:  1 time

Seeder not seen: 1 month 3 days

 
   
 
 
 
Author Message

Andrew1225 ®

Gender:

Longevity: 6 years 3 months

Posts: 17566

Post 23-Nov-2019 16:54

[Quote]

Дни Ада / Адские дни / Days of Hell / I giorni dell'inferno
Страна: Италия, Филиппины
Жанр: боевик
Год выпуска: 1986
Продолжительность: 01:32:05
Перевод: Одноголосый закадровый (Matosono) - Присутствует ненормативная лексика
Субтитры: японские
Оригинальная аудиодорожка: английский
Режиссер: Тонино Риччи / Tonino Ricci
В ролях: Бруно Миннити, Кивако Харада, Вернер Похат, Оттавиано Дэлль’Акква, Стелио Канделли, Лоуренс Ричмонд, Ховард Росс, Роберто Дэлль’Акква, Риккардо Петрацци
Описание: Коварные русские тайно используют в Афганистане химическое оружие - новейший отравляющий газ. Но не менее коварные американские спецслужбы их в этом покрывают. В итоге работавший среди повстанцев по гуманитарной медицинской линии доктор и его дочь оказались под химатаку советской авиации и попали в плен. Теперь удерживаются в закрытой крепости под контролем советских войск и их афганских союзников. Чтобы спасти врача и его дочь, ООН вместе с ЦРУ отправляют на секретную операцию группу наемников под командованием капитана Вильямсона в сопровождении профессора-химика Сандерса. Им предстоит спасти попавших в плен врачей, найти доказательства военных преступлений, расправиться со злобными русскими солдатами и коварными пособниками американских империалистов, чтобы на земле Афганистана наступил мир.
В конце 1980-х на волне популярности видеопроката и военных боевиков а-ля "Рэмбо-2" зарубежная кинопромышленность валом гнала поток малобюджетных военных боевиков. Особенно рьяно в этом бизнесе действовали великие мастера эксплуатационного кино - итальянцы, которые еще в 1970-е привыкли снимать киношки про героических американцев на войне. Только если тогда они снимали фильмы в основном про союзников на Второй мировой, то в 1980-е в связи с актуальностью новых тем место действия боевиков переместилось в третий мир - всевозможные "горячие точки" с участием наркоторговцев, контрабандистов, бандитов, военных преступников и - само собой - советских оккупантов. Особенно массово итальянцы снимали такое добро на Филиппинах, где нищие аборигены были готовы работать на них за любые деньги, а оставшийся у местной армии американский военный реквизит и дешевая китайская стрелковка позволяли за бесценок изобразить антураж Вьетнамской войны. Этот фильм отличается от сонма аналогичных итало-филиппинских шедевров только тем, что тут типичный сюжет а-ля Рэмбо переместили не во Вьетнам, а почему-то в Афганистан. Именно это и является главным источником веселья при просмотре фильма. Искреннее удовольствие наблюдать убогие песчаные карьеры вместо афганских гор, горы оставшейся американской техники и оружия времен Второй мировой вместе советского вооружения 1980-х, смехотворно убогую переделку американского бронеавтомобиля М8 "Грейхаунд" с фанерной башней в жалкое подобие советского БТР-80, невесть где набранных арабов и итальянцев в роли афганцев, клюквенную военную униформу вместо реального советского обмундирования, собственно цветущий и ярко-зеленый Афганистан в исполнении Филиппин, а также - неожиданно - довольно правильный русский язык закадровой озвучки. В остальном же это типичный представитель жанра дешевого военного боевика 1980-х, отличающийся всеми тогдашними особенностями: микроскопический бюджет, бездарная игра жанровых актеров, штампованный и стандартно-пропагандистский сюжет, дешевые и бессмысленные спецэффекты с их неумелым использованием, вставка кинохроники вертолетов вместо реальных вертолетов и вообще фантастически убогая постановка, из-за чего фильм больше похож на пародию на жанр. Справедливости ради надо признать, что благодаря нестандартному решению продюсеров и своему антуражу фильм действительно уникален в своей нише. И кроме того, следить оценить тот факт, что целый ряд моментов фильма неожиданно совпадают с сюжетом "Рэмбо-3", несмотря на то, что тот выйдет только через три года.
Доп. информация: ☭ НИИ клюквоведения им. Бориса Бритвы ☭

Сэмпл: http://yadi.sk/i/5tHR5raFJlEmIw
Качество видео: VHSRip
Формат видео: AVI
Видео: 560x368, 29.970 fps, XviD build 1 096 kb/s, 560 bit/pixels
Аудио: 44.1 kHz, AC3 Dolby Digital, 2/0 (L,R) ch, ~192 kbps - rus
Аудио 2: 44.1 kHz, AC3 Dolby Digital, 2/0 (L,R) ch, ~192 kbps - eng
Формат субтитров: hardsub (неотключаемые)

MediaInfo

GeneralComplete name : D:\клюква\ПЕРЕВОДЫ\ацкие дни\Days of Hell two.aviFormat : AVIFormat/Info : Audio Video InterleaveFile size : 1.00 GiBDuration : 1 h 32 minOverall bit rate : 1 562 kb/sWriting application : VirtualDubMod 1.5.10.2 (build 2540/release)Writing library : VirtualDubMod build 2540/release
VideoID : 0Format : MPEG-4 VisualFormat profile : Advanced Simple@L5Format settings, BVOP : 1Format settings, QPel : NoFormat settings, GMC : No warppointsFormat settings, Matrix : CustomCodec ID : XVIDCodec ID/Hint : XviDDuration : 1 h 32 minBit rate : 1 096 kb/sWidth : 560 pixelsHeight : 368 pixelsDisplay aspect ratio : 3:2Frame rate : 29.970 (30000/1001) FPSColor space : YUVChroma subsampling : 4:2:0Bit depth : 8 bitsScan type : ProgressiveCompression mode : LossyBits/(Pixel*Frame) : 0.178Stream size : 722 MiB (70%)Writing library : XviD 1.2.0.dev47 (UTC 2006-11-01)
Audio #1ID : 1Format : AC-3Format/Info : Audio Coding 3Format settings, Endianness : BigCodec ID : 2000Duration : 1 h 32 minBit rate mode : ConstantBit rate : 192 kb/sChannel(s) : 2 channelsChannel positions : Front: L RSampling rate : 44.1 kHzFrame rate : 28.711 FPS (1536 spf)Bit depth : 16 bitsCompression mode : LossyStream size : 126 MiB (12%)Alignment : Split accross interleavesInterleave, duration : 33 ms (1.00 video frame)Interleave, preload duratio : 500 msTitle : Русский(Мато)Service kind : Complete Main
Audio #2ID : 2Format : AC-3Format/Info : Audio Coding 3Format settings, Endianness : BigCodec ID : 2000Duration : 1 h 32 minBit rate mode : ConstantBit rate : 256 kb/sChannel(s) : 2 channelsChannel positions : Front: L RSampling rate : 48.0 kHzFrame rate : 31.250 FPS (1536 spf)Bit depth : 16 bitsCompression mode : LossyStream size : 169 MiB (16%)Alignment : Split accross interleavesInterleave, duration : 33 ms (1.00 video frame)Interleave, preload duratio : 500 msTitle : English(original)Service kind : Complete Main

Скриншот c названием фильма

[ru-zerkalo.org]_t_5803849
Torrent: Registered ·  [ 2019-11-23 16:54 ] ·  46c27d8df6424e0e93fe8a3a3e4ce76456c85c92

11 KB

Status: checked
Completed: 1 times
Size: 1 GB
Rating: 
(Votes: 0)
Say thanks: 0  Thanks
 
Похожие темы
[Profile] [PM]
Display posts from previous:    
Reply to topic

The time now is: Today 22:26

All times are GMT + 7 Hours



You cannot post new topics in this forum
You cannot reply to topics in this forum
You cannot edit your posts in this forum
You cannot delete your posts in this forum
You cannot vote in polls in this forum
You cannot attach files in this forum
You can download files in this forum