Register · 
Username: Password:
 ·  Forgot password?

Далёкий край / The Far Country (Энтони Манн / Anthony Mann) [1954, США, вестерн, BDRip] DVO + Original Eng

Reply to topic
DL-List and Torrent activity [Update пиров]
Size:  1.46 GB   |    Registered:  1 month 25 days   |    Completed:  1 time

Seeder not seen: 1 month 11 days

 
   
 
 
 
Author Message

Andrew1225 ®

Gender:

Longevity: 6 years 3 months

Posts: 17482

Post 23-Nov-2019 22:12

[Quote]

Далёкий край / The Far Country
Страна: США
Жанр: вестерн
Год выпуска: 1954
Продолжительность: 01:36:59
Перевод: Профессиональный (двухголосый закадровый)
Субтитры: нет
Оригинальная аудиодорожка: английский

Режиссер: Энтони Манн / Anthony Mann
В ролях: Джеймс Стюарт, Рут Роман, Коринн Кальве, Уолтер Бреннан, Джон МакИнтайр, Джей С. Флиппен, Гарри Морган, Стив Броди, Конни Гилкрайст, Роберт Дж. Уилк
Описание: В городок на границе США и Канады приезжает крепкий парень Джефф Уэбстер, для которого перегон скота является профессией и средством к существованию. Он берётся доставить крупное стадо из Сиэтла на Аляску. Однако ему не удаётся договориться о перевозке скота морем, и он решает перегонять стадо своим ходом. Проблема в том, что стадом решил завладеть нечистый на руку судья Гэннон, у которого на службе целая банда
Сэмпл
Качество видео: BDRip [The.Far.Country.1954.COMPLETE.BLURAY-OCULAR]
Формат видео: AVI
Видео: 720x384 (1.88:1), 23.976 fps, XviD build 73 ~1816 kbps avg, 0.27 bit/pixel
Аудио: 48 kHz, AC3 Dolby Digital, 2/0 (L,R) ch, ~192 kbps - двухголосый
Аудио: 48 kHz, AC3 Dolby Digital, 1/0 (C) ch, ~128 kbps - оригинал

MediaInfo

ОбщееПолное имя : H:\The.Far.Country.1954.bdrip_[1.46]_[teko].aviФормат : AVIФормат/Информация : Audio Video InterleaveРазмер файла : 1,46 ГбайтПродолжительность : 1 ч. 36 м.Общий поток : 2152 Кбит/секПрограмма кодирования : VirtualDubMod 1.5.10.3 | www.virtualdub-fr.org || (build 2550/release)Библиотека кодирования : VirtualDubMod build 2550/release
ВидеоИдентификатор : 0Формат : MPEG-4 VisualПрофиль формата : Advanced Simple@L5Параметр BVOP формата : 2Параметр QPel формата : НетПараметр GMC формата : Без точки переходаПараметр матрицы формата : ВыборочнаяИдентификатор кодека : XVIDИдентификатор кодека/Подсказка : XviDПродолжительность : 1 ч. 36 м.Битрейт : 1817 Кбит/секШирина : 720 пикселейВысота : 384 пикселяСоотношение сторон : 1,85:1Частота кадров : 23,976 кадра/секЦветовое пространство : YUVСубдискретизация насыщенности : 4:2:0Битовая глубина : 8 битТип развёртки : ПрогрессивнаяМетод сжатия : С потерямиБит/(Пиксели*Кадры) : 0.274Размер потока : 1,23 Гбайт (84%)Библиотека кодирования : XviD 73
Аудио #1Идентификатор : 1Формат : AC-3Формат/Информация : Audio Coding 3Расширение режима : CM (complete main)Параметр Endianness формата : BigИдентификатор кодека : 2000Продолжительность : 1 ч. 36 м.Вид битрейта : ПостоянныйБитрейт : 192 Кбит/секКаналы : 2 каналаРасположение каналов : Front: L RЧастота : 48,0 КГцБитовая глубина : 16 битМетод сжатия : С потерямиРазмер потока : 133 Мбайт (9%)Выравнивание : Разделение по промежуткамПродолжительность промежутка : 42 мс. (1,00 видеокадр)Время предзагрузки промежутка : 500 мс.
Аудио #2Идентификатор : 2Формат : AC-3Формат/Информация : Audio Coding 3Расширение режима : CM (complete main)Параметр Endianness формата : BigИдентификатор кодека : 2000Продолжительность : 1 ч. 36 м.Вид битрейта : ПостоянныйБитрейт : 128 Кбит/секКаналы : 1 каналРасположение каналов : Front: CЧастота : 48,0 КГцБитовая глубина : 16 битМетод сжатия : С потерямиРазмер потока : 88,8 Мбайт (6%)Выравнивание : Разделение по промежуткамПродолжительность промежутка : 42 мс. (1,00 видеокадр)Время предзагрузки промежутка : 500 мс.
:--
[ru-zerkalo.org]_t_5809779
Torrent: Registered ·  [ 2019-11-23 22:12 ] ·  0bf31a47fc891b0fa9a2e98a366a4334d9ba84d4

15 KB

Status: checked
Completed: 1 times
Size: 1.46 GB
Rating: 
(Votes: 0)
Say thanks: 0  Thanks
 
Похожие темы
[Profile] [PM]
Display posts from previous:    
Reply to topic

The time now is: Today 02:13

All times are GMT + 7 Hours



You cannot post new topics in this forum
You cannot reply to topics in this forum
You cannot edit your posts in this forum
You cannot delete your posts in this forum
You cannot vote in polls in this forum
You cannot attach files in this forum
You can download files in this forum