Register · 
Username: Password:
 ·  Forgot password?

(Melodic Hard Rock) [CD] Eclipse - Paradigm (Japanese Edition) - 2019, WavPack (image+.cue), lossless

Reply to topic
DL-List and Torrent activity [Update пиров]
Size:  454 MB   |    Registered:  1 month 12 days   |    Completed:  0 times

Seeder not seen: Never

 
   
 
 
 
Author Message

FragoMan ®

Gender:

Longevity: 6 years 3 months

Posts: 24911

Post 07-Dec-2019 16:12

[Quote]

Eclipse - Paradigm- Жанр: Melodic Hard Rock
Носитель: CD
Страна-производитель диска: Japan
Год издания: 2019-10-02
Издатель-лейбл: Marque Inc./Avalon
Номер по каталогу: MICP-11515
Страна исполнителя: Sweden
Аудиокодек: WavPack (*.wv)
Тип рипа: image+.cue
Битрейт аудио: lossless
Продолжительность: 00:45:14
ёр: jocker (Спасибо!)
Наличие сканов: да

Треклист:
01. Viva La Victoria (3:12)
02. Mary Leigh (3:06)
03. Blood Wants Blood (3:35)
04. Shelter Me (3:13)
05. United (3:49)
06. Delirious (3:10)
07. When The Winter Ends (4:48)
08. 38 Or 44 (4:08)
09. Never Gonna Be Like You (3:22)
10. The Masquerade (5:31)
11. Take Me Home (3:50)
12. When The Winter Ends ( Acoustic Version) ( Bonus Track) (3:32)

Лог создания рипа

Exact Audio Copy V1.3 from 2. September 2016
EAC extraction logfile from 6. December 2019, 15:27
Eclipse / Paradigm
Used drive : HL-DT-STDVDRAM GH24NSD1 Adapter: 1 ID: 0
Read mode : SecureUtilize accurate stream : YesDefeat audio cache : YesMake use of C2 pointers : No
Read offset correction : 6Overread into Lead-In and Lead-Out : NoFill up missing offset samples with silence : YesDelete leading and trailing silent blocks : NoNull samples used in CRC calculations : YesUsed interface : Native Win32 interface for Win NT & 2000
Used output format : User Defined EncoderSelected bitrate : 896 kBit/sQuality : HighAdd ID3 tag : NoCommand line compressor : C:\Program Files (x86)\Exact Audio Copy\wavpack.exeAdditional command line options : -hm %source% %dest%
TOC of the extracted CD
Track | Start | Length | Start sector | End sector --------------------------------------------------------- 1 | 0:00.00 | 3:11.51 | 0 | 14375 2 | 3:11.51 | 3:06.22 | 14376 | 28347 3 | 6:17.73 | 3:35.06 | 28348 | 44478 4 | 9:53.04 | 3:12.66 | 44479 | 58944 5 | 13:05.70 | 3:48.45 | 58945 | 76089 6 | 16:54.40 | 3:09.47 | 76090 | 90311 7 | 20:04.12 | 4:47.63 | 90312 | 111899 8 | 24:52.00 | 4:08.18 | 111900 | 130517 9 | 29:00.18 | 3:21.40 | 130518 | 145632 10 | 32:21.58 | 5:30.44 | 145633 | 170426 11 | 37:52.27 | 3:49.51 | 170427 | 187652 12 | 41:42.03 | 3:32.25 | 187653 | 203577
Range status and errors
Selected range
Filename E:\NetLab Club Releases\Eclipse - 2019 - Paradigm (Japanese Edition)\Eclipse - Paradigm.wav
Peak level 89.1 % Extraction speed 1.2 X Range quality 100.0 % Test CRC 8F61DB64 Copy CRC 8F61DB64 Copy OK
No errors occurred
AccurateRip summary
Track 1 not present in databaseTrack 2 not present in databaseTrack 3 not present in databaseTrack 4 not present in databaseTrack 5 not present in databaseTrack 6 not present in databaseTrack 7 not present in databaseTrack 8 not present in databaseTrack 9 not present in databaseTrack 10 not present in databaseTrack 11 not present in databaseTrack 12 not present in database
None of the tracks are present in the AccurateRip database
End of status report
---- CUETools DB Plugin V2.1.6
[CTDB TOCID: A60TvhkrhHXKuxfcsTpLv.O6Bpc-] foundSubmit result: A60TvhkrhHXKuxfcsTpLv.O6Bpc- has been confirmedTrack | CTDB Status 1 | (12/12) Accurately ripped 2 | (12/12) Accurately ripped 3 | (12/12) Accurately ripped 4 | (12/12) Accurately ripped 5 | (12/12) Accurately ripped 6 | (12/12) Accurately ripped 7 | (12/12) Accurately ripped 8 | (12/12) Accurately ripped 9 | (12/12) Accurately ripped 10 | (12/12) Accurately ripped 11 | (12/12) Accurately ripped 12 | (12/12) Accurately ripped
==== Log checksum 4C71079777FEF0DE4CDBFD50D59AA383F7D354C2339D4B374B6570A7D8C400C0 ====

CUETools

[CUETools log; Date: 07.12.2019 11:13:50; Version: 2.1.6][CTDB TOCID: A60TvhkrhHXKuxfcsTpLv.O6Bpc-] found.Track | CTDB Status 1 | (13/13) Accurately ripped 2 | (13/13) Accurately ripped 3 | (13/13) Accurately ripped 4 | (13/13) Accurately ripped 5 | (13/13) Accurately ripped 6 | (13/13) Accurately ripped 7 | (13/13) Accurately ripped 8 | (13/13) Accurately ripped 9 | (13/13) Accurately ripped 10 | (13/13) Accurately ripped 11 | (13/13) Accurately ripped 12 | (13/13) Accurately ripped[AccurateRip ID: 001342b3-00b6b701-a70a9a0c] found.Track [ CRC | V2 ] Status 01 [2ae3e459|cc00f59b] (0+2/2) Accurately ripped 02 [8ea1dde3|4d78733d] (0+2/2) Accurately ripped 03 [3b637b4c|0f82aef1] (0+2/2) Accurately ripped 04 [f84e6068|595c395e] (0+2/2) Accurately ripped 05 [d541f4e7|edb49ff0] (0+2/2) Accurately ripped 06 [9c2ecaca|e89e398c] (0+2/2) Accurately ripped 07 [365ef866|2fa892af] (0+2/2) Accurately ripped 08 [25bda8be|6e151994] (0+2/2) Accurately ripped 09 [421e3b20|91167a47] (0+2/2) Accurately ripped 10 [ae72b744|0335d7a9] (0+2/2) Accurately ripped 11 [18a12369|94f10763] (0+2/2) Accurately ripped 12 [3dd98b26|0145132c] (0+2/2) Accurately ripped
Track Peak [ CRC32 ] [W/O NULL] [ LOG ] -- 89,1 [8F61DB64] [685DD180] CRC32 01 89,1 [BABC3394] [E4778D0D] 02 89,1 [61C63B8C] [0A4E55CF] 03 89,1 [24606929] [DDB6AB94] 04 89,1 [102AC2F6] [96C09D9C] 05 89,1 [0B4A73C9] [6EBAA588] 06 89,1 [98F0C467] [0B51D728] 07 89,1 [680FE486] [75399EE6] 08 89,1 [230C9C28] [9D45E6FA] 09 89,1 [25E70068] [AA0AA8C6] 10 89,1 [E7EA1DBE] [4A9E4705] 11 89,1 [51ABA4F1] [AA0EFDD9] 12 89,1 [BDC130DB] [3E3A44B2]

DR

foobar2000 1.5 / Замер динамического диапазона (DR) 1.1.1Дата отчёта: 2019-12-07 11:10:25
--------------------------------------------------------------------------------Анализ: Eclipse / Paradigm--------------------------------------------------------------------------------
DR Пики RMS Продолжительность трека--------------------------------------------------------------------------------DR6 -1.00 дБ -9.03 дБ 3:12 01-Viva La VictoriaDR7 -1.00 дБ -8.57 дБ 3:06 02-Mary LeighDR6 -1.00 дБ -9.11 дБ 3:35 03-Blood Wants BloodDR6 -1.00 дБ -9.41 дБ 3:13 04-Shelter MeDR7 -1.00 дБ -9.10 дБ 3:49 05-UnitedDR7 -1.00 дБ -8.98 дБ 3:10 06-DeliriousDR6 -1.00 дБ -8.84 дБ 4:48 07-When The Winter EndsDR6 -1.00 дБ -8.69 дБ 4:08 08-38 Or 44DR6 -1.00 дБ -8.79 дБ 3:22 09-Never Gonna Be Like YouDR6 -1.00 дБ -8.89 дБ 5:31 10-The MasqueradeDR6 -1.00 дБ -8.33 дБ 3:50 11-Take Me HomeDR7 -1.00 дБ -10.34 дБ 3:32 12-When The Winter Ends ( Acoustic Version) ( Bonus Track)--------------------------------------------------------------------------------
Количество треков: 12Реальные значения DR: DR6
Частота: 44100 ГцКаналов: 2Разрядность: 16Битрейт: 948 кбит/сКодек: WavPack================================================================================
[ru-zerkalo.org]_t_5816473
Torrent: Registered ·  [ 2019-12-07 16:12 ] ·  b2ba8e792ba4313601799213dbc0f2958f7c31c3

19 KB

Status: checked
Completed: 0 times
Size: 454 MB
Rating: 
(Votes: 0)
Say thanks: 0  Thanks
 
Похожие темы
[Profile] [PM]
Display posts from previous:    
Reply to topic

The time now is: Today 11:49

All times are GMT + 7 Hours



You cannot post new topics in this forum
You cannot reply to topics in this forum
You cannot edit your posts in this forum
You cannot delete your posts in this forum
You cannot vote in polls in this forum
You cannot attach files in this forum
You can download files in this forum