Register · 
Username: Password:
 ·  Forgot password?

(Rockabilly) [CD] Glen Glenn - The Glen Glenn Story & Everybody\'s Movin\' Again - 1992, WavPack (image+.cue), lossless

Reply to topic
DL-List and Torrent activity [Update пиров]
Size:  300 MB   |    Registered:  1 month 11 days   |    Completed:  0 times

Seeder not seen: Never

 
   
 
 
 
Author Message

manic-manic ®

Gender:

Longevity: 6 years 3 months

Posts: 14161

Post 07-Dec-2019 19:19

[Quote]

Glen Glenn / The Glen Glenn Story & Everybody's Movin' Again
2 albums plus 2 bonus tracks
Жанр: Rockabilly
Носитель: CD
Страна-производитель диска (релиза): UK
Год издания: 1992
Издатель (лейбл): ACE Records
Номер по каталогу: CDCH 403
Страна исполнителя (группы): USA
Аудиокодек: WavPack (*.wv)
Тип рипа: image+.cue
Продолжительность: 01:07:26
Источник: собственный рип
Наличие сканов в содержимом раздачи: да
Треклист:
The Glen Glenn Story 1982
01. If I Had Me A Woman [0:02:29.35]
02. One Cup Of Coffee [0:02:03.45]
03. Hold Me Baby [0:02:31.17]
04. Baby Let's Play House [0:02:24.60]
05. Laurie Ann [0:02:45.00]
06. Be-Bop-A-Lula [0:02:18.13]
07. Kitty Kat [0:02:06.20]
08. Everybody's Movin' [0:03:06.50]
09. Shake, Rattle And Roll [0:02:32.67]
10. Treat Me Nice [0:02:01.60]
11. Blue Jeans And A boy's Shirt [0:02:51.58]
12. I Got A Woman [0:02:13.55]
13. Kathleen [0:02:24.50]
bonus tracks
14. Would Ja' [0:02:03.42]
15. I'm Glad My Baby's Gone Away [0:02:24.30]
Everybody's Movin' Again 1984
16. Down The line [0:02:20.28]
17. Come On [0:02:16.20]
18. Flip, Flop And Fly [0:02:02.10]
19. Jack And Jill Boogie [0:01:41.15]
20. I Sure Do Love You Baby [0:03:11.47]
21. Bony Moronie [0:02:32.15]
22. Mean Woman Blues [0:01:49.25]
23. Rock 'N' Roll Ruby [0:02:08.70]
24. Sick And Tired [0:02:08.58]
25. Rockin' Round The Mountain [0:02:13.52]
26. Why Don't You Love Me [0:01:35.10]
27. Ugly And Slouchy [0:01:49.30]
28. You Win Again [0:03:14.08]
29. Everybody's Movin' Again [0:02:05.07]

Лог создания рипа

Exact Audio Copy V1.3 from 2. September 2016
EAC extraction logfile from 7. December 2019, 12:23
Glen Glenn / The Glen Glenn Story & Everybody's Movin' Again
Used drive : PLEXTOR DVDR PX-L890SA Adapter: 1 ID: 0
Read mode : SecureUtilize accurate stream : YesDefeat audio cache : YesMake use of C2 pointers : No
Read offset correction : 6Overread into Lead-In and Lead-Out : NoFill up missing offset samples with silence : YesDelete leading and trailing silent blocks : NoNull samples used in CRC calculations : YesUsed interface : Native Win32 interface for Win NT & 2000
Used output format : User Defined EncoderSelected bitrate : 1024 kBit/sQuality : HighAdd ID3 tag : NoCommand line compressor : C:\Program Files (x86)\Exact Audio Copy\wavpack.exeAdditional command line options : -lm %source%
TOC of the extracted CD
Track | Start | Length | Start sector | End sector --------------------------------------------------------- 1 | 0:00.43 | 2:29.35 | 43 | 11252 2 | 2:30.03 | 2:03.45 | 11253 | 20522 3 | 4:33.48 | 2:31.17 | 20523 | 31864 4 | 7:04.65 | 2:24.60 | 31865 | 42724 5 | 9:29.50 | 2:45.00 | 42725 | 55099 6 | 12:14.50 | 2:18.13 | 55100 | 65462 7 | 14:32.63 | 2:06.20 | 65463 | 74932 8 | 16:39.08 | 3:06.50 | 74933 | 88932 9 | 19:45.58 | 2:32.67 | 88933 | 100399 10 | 22:18.50 | 2:01.60 | 100400 | 109534 11 | 24:20.35 | 2:51.58 | 109535 | 122417 12 | 27:12.18 | 2:13.55 | 122418 | 132447 13 | 29:25.73 | 2:24.50 | 132448 | 143297 14 | 31:50.48 | 2:03.42 | 143298 | 152564 15 | 33:54.15 | 2:24.30 | 152565 | 163394 16 | 36:18.45 | 2:20.28 | 163395 | 173922 17 | 38:38.73 | 2:16.20 | 173923 | 184142 18 | 40:55.18 | 2:02.10 | 184143 | 193302 19 | 42:57.28 | 1:41.15 | 193303 | 200892 20 | 44:38.43 | 3:11.47 | 200893 | 215264 21 | 47:50.15 | 2:32.15 | 215265 | 226679 22 | 50:22.30 | 1:49.25 | 226680 | 234879 23 | 52:11.55 | 2:08.70 | 234880 | 244549 24 | 54:20.50 | 2:08.58 | 244550 | 254207 25 | 56:29.33 | 2:13.52 | 254208 | 264234 26 | 58:43.10 | 1:35.10 | 264235 | 271369 27 | 60:18.20 | 1:49.30 | 271370 | 279574 28 | 62:07.50 | 3:14.08 | 279575 | 294132 29 | 65:21.58 | 2:05.07 | 294133 | 303514
Range status and errors
Selected range
Filename D:\wwphil\Glen Glenn - The Glen Glenn Story & Everybody's Movin' Again (1992)\Glen Glenn - The Glen Glenn Story & Everybody's Movin' Again.wav
Peak level 100.0 % Extraction speed 10.0 X Range quality 100.0 % Test CRC 04346A05 Copy CRC 04346A05 Copy OK
No errors occurred
AccurateRip summary
Track 1 accurately ripped (confidence 4) [F84FDDD0] (AR v2)Track 2 accurately ripped (confidence 4) [F08B2AA1] (AR v2)Track 3 accurately ripped (confidence 4) [D989F1B6] (AR v2)Track 4 accurately ripped (confidence 4) [E0F03D34] (AR v2)Track 5 accurately ripped (confidence 4) [2C6C9CC1] (AR v2)Track 6 accurately ripped (confidence 4) [B3D40C97] (AR v2)Track 7 accurately ripped (confidence 4) [98C2079F] (AR v2)Track 8 accurately ripped (confidence 4) [1275339A] (AR v2)Track 9 accurately ripped (confidence 4) [E3ED122C] (AR v2)Track 10 accurately ripped (confidence 4) [26177FDE] (AR v2)Track 11 accurately ripped (confidence 4) [0F957073] (AR v2)Track 12 accurately ripped (confidence 4) [F69AE4A7] (AR v2)Track 13 accurately ripped (confidence 4) [A0CDECE3] (AR v2)Track 14 accurately ripped (confidence 4) [1914721C] (AR v2)Track 15 accurately ripped (confidence 4) [E93723B6] (AR v2)Track 16 accurately ripped (confidence 4) [92E0C85C] (AR v2)Track 17 accurately ripped (confidence 4) [8846DD5D] (AR v2)Track 18 accurately ripped (confidence 4) [3BA553B4] (AR v2)Track 19 accurately ripped (confidence 4) [21924023] (AR v2)Track 20 accurately ripped (confidence 4) [13423D44] (AR v2)Track 21 accurately ripped (confidence 4) [0039D894] (AR v2)Track 22 accurately ripped (confidence 4) [C645C3D3] (AR v2)Track 23 accurately ripped (confidence 4) [FABF755D] (AR v2)Track 24 accurately ripped (confidence 4) [DD434E11] (AR v2)Track 25 accurately ripped (confidence 4) [AE58DB03] (AR v2)Track 26 accurately ripped (confidence 4) [BF38B6C6] (AR v2)Track 27 accurately ripped (confidence 4) [9CB5BEB7] (AR v2)Track 28 accurately ripped (confidence 4) [3D5EF36E] (AR v2)Track 29 accurately ripped (confidence 4) [2411C2E8] (AR v2)
All tracks accurately ripped
End of status report
==== Log checksum 22348ECC8340A9A93D971255E7C173E441885CFBD56CAD6CE3969B551F312C2A ====

Скриншот спектра частот

[ru-zerkalo.org]_t_5816516
Torrent: Registered ·  [ 2019-12-07 19:19 ] ·  488cb23dcc3476a00b1de65fd704f6f7d5a0520d

13 KB

Status: checked
Completed: 0 times
Size: 300 MB
Rating: 
(Votes: 0)
Say thanks: 0  Thanks
 
Похожие темы
[Profile] [PM]
Display posts from previous:    
Reply to topic

The time now is: Today 02:11

All times are GMT + 7 Hours



You cannot post new topics in this forum
You cannot reply to topics in this forum
You cannot edit your posts in this forum
You cannot delete your posts in this forum
You cannot vote in polls in this forum
You cannot attach files in this forum
You can download files in this forum