Register · 
Username: Password:
 ·  Forgot password?

Buddy Guy & Jonny Lang • Crossroads Guitar Festival [2019, Blues Rock, HDTV, 1080i]

Reply to topic
DL-List and Torrent activity [Update пиров]
Size:  3.21 GB   |    Registered:  1 month 7 days   |    Completed:  0 times

Seeder not seen: Never

 
   
 
 
 
Author Message

rychkalov ®

Gender:

Longevity: 6 years 3 months

Posts: 18634

Post 17-Dec-2019 03:21

[Quote]

Buddy Guy & Jonny Lang
Crossroads Guitar Festival

Жанр: Blues Rock
Продолжительность: 00:30:53
Год выпуска: 2019
Качество: HDTV
Разрешение видео/развертка: 1080i
Контейнер: TS
Видео кодек: H.264
Аудио кодек: AC3
Видео: MPEG4 Video (H264) 1920x1080 29.97fps 13.8 Mb/s
Аудио: Dolby AC3 48000Hz 6ch 384kbps

Треклист

01. Cognac
02. I Just Want to Make Love to You / Cheaper To Keep Her
03. Five Long Years

Отчёт MediaInfo / BDInfo

GeneralID : 0 (0x0)Complete name : H:\Buddy Guy & Jonny Lang - Crossroads Guitar Festivel 2019.tsFormat : MPEG-TSFile size : 3.21 GiBDuration : 30 min 52 sOverall bit rate mode : VariableOverall bit rate : 14.9 Mb/s
VideoID : 4113 (0x1011)Menu ID : 1 (0x1)Format : AVCFormat/Info : Advanced Video CodecFormat profile : High@L4Format settings : CABAC / 3 Ref FramesFormat settings, CABAC : YesFormat settings, Reference fra : 3 framesCodec ID : 27Duration : 30 min 52 sBit rate : 13.8 Mb/sWidth : 1 920 pixelsHeight : 1 080 pixelsDisplay aspect ratio : 16:9Frame rate : 29.970 (30000/1001) FPSStandard : ComponentColor space : YUVChroma subsampling : 4:2:0Bit depth : 8 bitsScan type : InterlacedScan type, store method : Separated fieldsScan order : Top Field FirstBits/(Pixel*Frame) : 0.221Stream size : 2.97 GiB (92%)Color range : LimitedColor primaries : BT.709Transfer characteristics : BT.709Matrix coefficients : BT.709
AudioID : 4352 (0x1100)Menu ID : 1 (0x1)Format : AC-3Format/Info : Audio Coding 3Commercial name : Dolby DigitalCodec ID : 129Duration : 30 min 52 sBit rate mode : ConstantBit rate : 384 kb/sChannel(s) : 6 channelsChannel layout : L R C LFE Ls RsSampling rate : 48.0 kHzFrame rate : 31.250 FPS (1536 SPF)Compression mode : LossyDelay relative to video : -379 msStream size : 84.8 MiB (3%)Service kind : Complete Main
Мои раздачи ®">

Скриншоты Мои раздачи ®


[url=tracker.php?rid=9539252]http:///forum/tracker.php?rid=9539252[/url]
[ru-zerkalo.org]_t_5819278
Torrent: Registered ·  [ 2019-12-17 03:20 ] ·  c0cfde9e0a161f6c879853e55fa4488ad85f9b7e

17 KB

Status: checked
Completed: 0 times
Size: 3.21 GB
Rating: 
(Votes: 0)
Say thanks: 0  Thanks
 
Похожие темы
[Profile] [PM]
Display posts from previous:    
Reply to topic

The time now is: Today 22:25

All times are GMT + 7 Hours



You cannot post new topics in this forum
You cannot reply to topics in this forum
You cannot edit your posts in this forum
You cannot delete your posts in this forum
You cannot vote in polls in this forum
You cannot attach files in this forum
You can download files in this forum