Register · 
Username: Password:
 ·  Forgot password?

(Italo-Disco, Euro House) [CD] The Tycoons (Gazebo - lead vocal) - First - 1991, FLAC (image+.cue), lossless

Reply to topic
DL-List and Torrent activity [Update пиров]
Size:  253 MB   |    Registered:  1 month 4 days   |    Completed:  0 times

Seeder not seen: Never

 
   
 
 
 
Author Message

Makci ®

Gender:

Longevity: 6 years 3 months

Posts: 12853

Post 20-Dec-2019 22:14

[Quote]

The Tycoons / First
Жанр: Italo-Disco, Euro House
Носитель: CD
Страна-производитель диска (релиза): Japan
Год издания: 1991
Издатель (лейбл): Jimco Records
Номер по каталогу: JIM 0071
Страна исполнителя (группы): Italy
Аудиокодек: FLAC (*.flac)
Тип рипа: image+.cue
Продолжительность: 0:41:14
Источник: собственный рип
Наличие сканов в содержимом раздачи: нет
Треклист:
1 To Carol 5:45
2 Run Run Run 6:33
3 Miss You So 4:36
4 Love Me Tender 3:04
5 Tycoon 5:25
6 Wall Street Heart 4:38
7 Old Fashion Love 5:10
8 Why 4:23
9 Dancing With The Moonlit Knight 1:46

Лог создания рипа

Exact Audio Copy V1.0 beta 3 from 29. August 2011
Отчёт EAC об извлечении, выполненном 20. декабря 2019, 2:14
The Tycoons / First
Дисковод: TSSTcorpCDDVDW SH-224DB Adapter: 1 ID: 0
Режим чтения : ДостоверностьИспользование точного потока : ДаОтключение кэша аудио : ДаИспользование указателей C2 : Нет
Коррекция смещения при чтении : 6Способность читать области Lead-in и Lead-out : НетЗаполнение пропущенных сэмплов тишиной : ДаУдаление блоков с тишиной в начале и конце : НетПри вычислениях CRC использовались нулевые сэмплы : ДаИнтерфейс : Встроенный Win32-интерфейс для Win NT/2000
Выходной формат : Пользовательский кодировщикВыбранный битрейт : 128 kBit/sКачество : ВысокийДобавление ID3-тега : НетУтилита сжатия : C:\Program Files (x86)\FLAC\flac.exeДополнительные параметры : -V -8 -T "Date=%year%" -T "Genre=%genre%" %source%
TOC извлечённого CD
Трек | Старт | Длительность | Начальный сектор | Конечный сектор --------------------------------------------------------------------- 1 | 0:00.00 | 5:40.47 | 0 | 25546 2 | 5:40.47 | 6:29.13 | 25547 | 54734 3 | 12:09.60 | 4:37.65 | 54735 | 75574 4 | 16:47.50 | 3:07.57 | 75575 | 89656 5 | 19:55.32 | 5:20.60 | 89657 | 113716 6 | 25:16.17 | 4:37.73 | 113717 | 134564 7 | 29:54.15 | 5:08.57 | 134565 | 157721 8 | 35:02.72 | 4:22.55 | 157722 | 177426 9 | 39:25.52 | 1:47.70 | 177427 | 185521
Характеристики диапазона извлечения и сообщения об ошибках
Выбранный диапазон
Имя файла C:\EAC\The Tycoons - First - 1991 CD (Japan Edit, Jimco Records - JIM 0071)\The Tycoons - First.wav
Пиковый уровень 95.0 % Скорость извлечения 6.7 X Качество диапазона 100.0 % CRC теста 165827B8 CRC копии 165827B8 Копирование... OK
Ошибок не произошло
AccurateRip: сводка
Трек 1 отсутствует в базе данныхТрек 2 отсутствует в базе данныхТрек 3 отсутствует в базе данныхТрек 4 отсутствует в базе данныхТрек 5 отсутствует в базе данныхТрек 6 отсутствует в базе данныхТрек 7 отсутствует в базе данныхТрек 8 отсутствует в базе данныхТрек 9 отсутствует в базе данных
Ни одного трека нет в базе AccurateRip
Конец отчёта
==== Контрольная сумма отчёта C90586316779757E23E1DB01806316F0DB0F9E0F74DBC6BED4F710A3F805C63B ====

Содержание индексной карты (.CUE)

REM DATE 1991REM DISCID 7109A909REM COMMENT "ExactAudioCopy v1.0b3"PERFORMER "The Tycoons"TITLE "First"FILE "The Tycoons - First.flac" WAVE TRACK 01 AUDIO TITLE "To Carol" PERFORMER "The Tycoons" INDEX 01 00:00:00 TRACK 02 AUDIO TITLE "Run Run Run" PERFORMER "The Tycoons" INDEX 01 05:40:47 TRACK 03 AUDIO TITLE "Miss You So" PERFORMER "The Tycoons" INDEX 01 12:09:60 TRACK 04 AUDIO TITLE "Love Me Tender" PERFORMER "The Tycoons" INDEX 00 16:45:47 INDEX 01 16:47:50 TRACK 05 AUDIO TITLE "Tycoon" PERFORMER "The Tycoons" INDEX 00 19:53:12 INDEX 01 19:55:32 TRACK 06 AUDIO TITLE "Wall Street Heart" PERFORMER "The Tycoons" INDEX 01 25:16:17 TRACK 07 AUDIO TITLE "Old Fashion Love" PERFORMER "The Tycoons" INDEX 01 29:54:15 TRACK 08 AUDIO TITLE "Why" PERFORMER "The Tycoons" INDEX 01 35:02:72 TRACK 09 AUDIO TITLE "Dancing With The Moonlit Knight" PERFORMER "The Tycoons" INDEX 01 39:25:52
Доп. информация: На OBI название проекта фигурирует как Gazebo With The Tycoons
[ru-zerkalo.org]_t_5823186
Torrent: Registered ·  [ 2019-12-20 22:14 ] ·  91082877493e69f72d42dba2a5c7b1eb8a8611a6

20 KB

Status: checked
Completed: 0 times
Size: 253 MB
Rating: 
(Votes: 0)
Say thanks: 0  Thanks
 
Похожие темы
[Profile] [PM]
Display posts from previous:    
Reply to topic

The time now is: Today 22:25

All times are GMT + 7 Hours



You cannot post new topics in this forum
You cannot reply to topics in this forum
You cannot edit your posts in this forum
You cannot delete your posts in this forum
You cannot vote in polls in this forum
You cannot attach files in this forum
You can download files in this forum