Register · 
Username: Password:
 ·  Forgot password?

Ангельское личико / Gueule d\'ange / Angel Face (Ванесса Филхо / Vanessa Filho) [2018, Франция, драма, BDRip] Dub (iTunes) + Sub (Rus, Eng) + Original Fra

Reply to topic
DL-List and Torrent activity [Update пиров]
Size:  2.18 GB   |    Registered:  29 days   |    Completed:  0 times

Seeder not seen: Never

 
   
 
 
 
Author Message

rychkalov ®

Gender:

Longevity: 6 years 3 months

Posts: 18607

Post 20-Dec-2019 22:14

[Quote]

Ангельское личико / Gueule d'ange / Angel Face
Страна: Франция
Жанр: драма
Год выпуска: 2018
Продолжительность: 01:50:38-Перевод: Профессиональный (дублированный) | iTunes
Субтитры: русские, английские
Оригинальная аудиодорожка: французский-Режиссер:
Ванесса Филхо / Vanessa Filho-В ролях: Марион Котийяр, Айлин Эксу-Это, Альбан Ленуар, Амели Доре, Над Дье, Стефан Ридо, Розалин Гои, Роян Онисси-Герцог, Элис Фабри, Энцо де Джованни-Описание: Мать-одиночка Марлин живёт с 8-летней дочкой Элли в небольшом городке близ Лазурного Берега. Однажды она решает оставить ребенка ради мужчины, с которым познакомилась во время очередного загула по клубам. Теперь Элли должна вернуть себе мать и заставить её разобраться с собственными внутренними демонами.- -Качество видео: BDRip | Gueule.d.Ange.2018.BDREMUX.1080p.seleZen
Формат видео: AVI
Видео: 720x304 (2.37:1), 24.000 fps, XviD build 73 ~1978 kbps avg, 0.38 bit/pixel
Аудио 1: 48 kHz, AC3 Dolby Digital, 3/2 (L,C,R,l,r) + LFE ch, ~384 kbps | RUS
Аудио 2: 48 kHz, AC3 Dolby Digital, 3/2 (L,C,R,l,r) + LFE ch, ~448 kbps | FRA-Сэмпл-

MediaInfo

Формат                                   : AVI
Формат/Информация                        : Audio Video Interleave
Профиль формата                          : OpenDML
Размер файла                             : 2,18 Гбайт
Продолжительность                        : 1 ч. 50 м.
Общий поток                              : 2817 Кбит/сек
Название фильма                          : Ангельское личико_2018_BDRip
Программа кодирования                    : VirtualDubMod 1.5.10.3 | www.virtualdub-fr.org || (build 2550/release)
Авторское право                          : порошков
Видео
Идентификатор                            : 0
Формат                                   : MPEG-4 Visual
Профиль формата                          : Advanced Simple@L5
Настройки формата                        : BVOP1 / Custom Matrix
Параметр BVOP формата                    : 1
Параметр QPel формата                    : Нет
Параметр GMC формата                     : Без точки перехода
Параметр матрицы формата                 : Выборочная
Идентификатор кодека                     : XVID
Идентификатор кодека/Подсказка           : XviD
Продолжительность                        : 1 ч. 50 м.
Битрейт                                  : 1968 Кбит/сек
Ширина                                   : 720 пикселей
Высота                                   : 304 пикселя
Соотношение сторон                       : 2,35:1
Частота кадров                           : 24,000 кадра/сек
Цветовое пространство                    : YUV
Субдискретизация насыщенности            : 4:2:0
Битовая глубина                          : 8 бит
Тип развёртки                            : Прогрессивная
Метод сжатия                             : С потерями
Бит/(Пиксели*Кадры)                      : 0.375
Размер потока                            : 1,52 Гбайт (70%)
Библиотека кодирования                   : XviD 73
Аудио #1
Идентификатор                            : 1
Формат                                   : AC-3
Формат/Информация                        : Audio Coding 3
Коммерческое название                    : Dolby Digital
Идентификатор кодека                     : 2000
Продолжительность                        : 1 ч. 50 м.
Вид битрейта                             : Постоянный
Битрейт                                  : 384 Кбит/сек
Каналы                                   : 6 каналов
ChannelLayout                            : L R C LFE Ls Rs
Частота                                  : 48,0 КГц
Частота кадров                           : 31,250 кадров/сек (1536 SPF)
Метод сжатия                             : С потерями
Размер потока                            : 304 Мбайт (14%)
Выравнивание                             : Разделение по промежуткам
Продолжительность промежутка             : 42  мс. (1,00 видеокадр)
Время предзагрузки промежутка            : 500  мс.
Заголовок                                : rus
ServiceKind/String                       : Complete Main
Аудио #2
Идентификатор                            : 2
Формат                                   : AC-3
Формат/Информация                        : Audio Coding 3
Коммерческое название                    : Dolby Digital
Идентификатор кодека                     : 2000
Продолжительность                        : 1 ч. 50 м.
Вид битрейта                             : Постоянный
Битрейт                                  : 448 Кбит/сек
Каналы                                   : 6 каналов
ChannelLayout                            : L R C LFE Ls Rs
Частота                                  : 48,0 КГц
Частота кадров                           : 31,250 кадров/сек (1536 SPF)
Метод сжатия                             : С потерями
Размер потока                            : 354 Мбайт (16%)
Выравнивание                             : Разделение по промежуткам
Продолжительность промежутка             : 42  мс. (1,00 видеокадр)
Время предзагрузки промежутка            : 500  мс.
Заголовок                                : fra
ServiceKind/String                       : Complete Main

Скриншоты


[ru-zerkalo.org]_t_5823362
Torrent: Registered ·  [ 2019-12-20 22:14 ] ·  eb86b10fcf213956789fc739c0a7a570b9a59c60

12 KB

Status: checked
Completed: 0 times
Size: 2.18 GB
Rating: 
(Votes: 0)
Say thanks: 0  Thanks
 
Похожие темы
[Profile] [PM]
Display posts from previous:    
Reply to topic

The time now is: Today 02:11

All times are GMT + 7 Hours



You cannot post new topics in this forum
You cannot reply to topics in this forum
You cannot edit your posts in this forum
You cannot delete your posts in this forum
You cannot vote in polls in this forum
You cannot attach files in this forum
You can download files in this forum