Register · 
Username: Password:
 ·  Forgot password?

[TR24][OF] Taylor Swift - The Taylor Swift Holiday Collection - 2008/2019 (Pop, Country, Holiday)

Reply to topic
DL-List and Torrent activity [Update пиров]
Size:  869 MB   |    Registered:  29 days   |    Completed:  0 times

Seeder not seen: Never

 
   
 
 
 
Author Message

Dimas28 ®

Gender:

Longevity: 6 years 3 months

Posts: 23705

Post 21-Dec-2019 01:21

[Quote]

Taylor Swift - The Taylor Swift Holiday Collection-- Формат записи/Источник записи: [TR24][OF]
Наличие водяных знаков: Нет
Год издания: 2019
Жанр: Pop, Country, Holiday
Издатель (лейбл): Big Machine Records, LLC
Продолжительность: 00:19:45
Наличие сканов в содержимом раздачи: Только обложка альбома
Контейнер: FLAC (*.flac)
Тип рипа: tracks
Разрядность: 24/192
Формат: PCM
Количество каналов: 2.0
Источник (релизер): qobuz.com-Треклист
01. Last Christmas
02. Christmases When You Were Mine
03. Santa Baby
04. Silent Night
05. Christmas Must Be Something More
06. White Christmas

Лог проверки качества

foobar2000 1.4.8 / Dynamic Range Meter 1.1.1log date: 2019-12-14 23:14:27
--------------------------------------------------------------------------------Analyzed: Taylor Swift / The Taylor Swift Holiday Collection--------------------------------------------------------------------------------
DR Peak RMS Duration Track--------------------------------------------------------------------------------DR8 -0.52 dB -9.84 dB 3:39 01-Last ChristmasDR8 -0.50 dB -10.71 dB 3:14 02-Christmases When You Were MineDR8 -0.52 dB -9.73 dB 2:45 03-Santa BabyDR9 -0.52 dB -11.87 dB 3:37 04-Silent NightDR8 -0.52 dB -9.84 dB 3:55 05-Christmas Must Be Something MoreDR8 -0.52 dB -10.01 dB 2:37 06-White Christmas--------------------------------------------------------------------------------
Number of tracks: 6Official DR value: DR8Samplerate: 192000 HzChannels: 2Bits per sample: 24Bitrate: 6232 kbpsCodec: FLAC================================================================================

Об альбоме (сборнике)

"Thanks to this teen star, a new generation of sensitive girls may discover the melancholy but oh-so-melodic 'Last Christmas'. She also includes two original holiday songs." CMT
The Taylor Swift Holiday Collection is a holiday EP from American singer-songwriter Taylor Swift, first released in October 2007. The Taylor Swift Holiday Collection features cover versions of Christmas songs and two original tracks written by Swift, "Christmases When You Were Mine" and "Christmas Must Be Something More", all of which have a country pop sound.
[ru-zerkalo.org]_t_5820578
Torrent: Registered ·  [ 2019-12-21 01:21 ] ·  286ff538fe79d49c87e95fa0913f024a5eeca9e6

18 KB

Status: checked
Completed: 0 times
Size: 869 MB
Rating: 
(Votes: 0)
Say thanks: 0  Thanks
 
Похожие темы
[Profile] [PM]
Display posts from previous:    
Reply to topic

The time now is: Today 02:16

All times are GMT + 7 Hours



You cannot post new topics in this forum
You cannot reply to topics in this forum
You cannot edit your posts in this forum
You cannot delete your posts in this forum
You cannot vote in polls in this forum
You cannot attach files in this forum
You can download files in this forum