Register · 
Username: Password:
 ·  Forgot password?

(Neo Psychedelic, Kraut, Avant) Backnee Horn - Дискография - 2008, 2011 - FLAC (tracks+.cue), lossless

Reply to topic
DL-List and Torrent activity [Update пиров]
Size:  915 MB   |    Registered:  1 month 3 days   |    Completed:  0 times

Seeder not seen: Never

 
   
 
 
 
Author Message

kadSM ®

Gender:

Longevity: 6 years 3 months

Posts: 19717

Post 21-Dec-2019 04:27

[Quote]


Backnee Horn - дискография (2 альбома) - 2008, 2011

Выложено с разрешения Backnee Horn
Эта же дискография в mp3
Сольный альбом Rudi J 2001 года
Страна исполнителя: Israel
Жанр: kraut, avant-prog || Аудио кодек: FLAC || Тип рипа: (tracks + .cue) || Битрейт аудио: lossless || Включает: Full artwork
Facebook || Myspace || LastFM || Youtube || Melomonkeys
Один из самых загадочных персонажей в израильской независимой музыке - Руди Джи. Это не фамилия, а название "бренда", все знают его именно так.
Руди - создатель авангардной музыки и аудиофил. Много лет Руди был ударником и певцом, работал со многими местными артистами и группами, в основном - с кавер-группами, играющими LZ и Doors. Примерно лет десять назад, на пике своей карьеры он все бросил, занявшись только творчеством и музыкой, которую невозможно играть на большинстве сцен Израиля.
В 2001 он записал свой первый сольный альбом с собственными композициями, реализовав свою любовь к психоделик-року, после чего он собрал группу Pre. Rudi J & The Pre Band выступали несколько раз в клубе Барби (Тель Авив) в составе - Рони Даниэль (ударные), Эйтан Ардити и Саги Амит (гитары) и Асаф Равид (бас), после чего Руди исчез до 2006 года. В это время (2002-2005) Руди регулярно собирал у себя музыкантов для записи импровизационных джемов, в последствии подобный подход получил продолжение в рамках Backnee Horn. Среди наиболее часто принимавших участие в записях были Шимон Африат, Константин Гланц (Soul Enema) и Женя Кушнир (Sumo Elevator).
Часть его квартиры заполняют стеллажи с виниловыми дисками, при перечислении он в первую очередь называет диски Tangerine Dream (до 1979), Клауса Шульце и Штокхаузена. Руди не хочет, чтобы на обложках альбомов его группы, на посвященных ему веб-страницах и других источниках информации были его снимки и другие конкретные образы. "Эта музыка... Скажем так - конкретные образы могут ограничить слушателя, не дать ему улететь туда, куда ему хочется". Если спросить у Руди его мнение о видеоклипах, которые можно найти в сети - он скажет снова, что не любит их. Он скажет что то в вроде - Что, кто нибудь будет диктовать мне, что видеть в голове, когда я слушаю определенную музыку?"
Сейчас в Backnee Horn - трое, Alex Furman (Sumo Elevator), Igor Trainin (aka Rogi Niniart) и Руди, они работают в студии с только аналоговым оборудованием, Руди говорит, что это только начало развития группы. В 2011 вышел второй, двойной диск, сейчас в Германии готовится его тираж на виниле, а в записях постоянно продолжающихся джемов - репетиций уже достаточно материалов для третьего

2008 - Backnee Horn

тяжело определить лучший номер в альбоме, поскольку их стиль - цельный микрокосм на протяжении всего альбома. Известный израильский клавишник - меллотронист Зоар Коэн (участник Lemmus Lemmus, обладатель старого Пинк Флойдовского MkII, на котором играл Rick Wright) добавил партии меллотрона ко всем номерам альбома. Альбом основан на никогда не рассказанной истории на никому не известном языке (a la Magma) и представляет собой замечательную смесь психоделии, джема, студийной медитации и многослойных наслоений чувства, динамики и волшебной атмосферы. Альбом создан в свободной форме, в сложно катеригоризируемом стиле и члены группы подчеркивают, что это был студийный джем - все записано вживую, без дублей, микшировано во время исполнения, без последующего редактирования. Начиная с 2005 члены группы встречались раз в неделю в домашней аналоговой студии Руди Джи для джемов, использовались только винтажные инструменты.
Жанр: Jam, Neo Psychedelic, Kraut
Год издания: 2008
Страна - производитель диска: Israel
Издатель (лейбл): Head Lee Studios
Номер по каталогу: No number
Тип: Studio, Jam
Продолжительность: 1:03:53
Источник (релизер): Моя коллекция, мой рип
Трэклист:
1. Zooming Glooming - 03:25
2. Outleting Storming Particles - 07:29
3. Far Away But Close - 08:03
4. Around the Karmal Line - 14:38
5. Multiple Streaming Encounter - 06:52
6. Exhale Inside a Shell - 10:07
7. Flaming Inside Gaming - 06:16
8. Malachite Stroke - 06:59
All tracks composed by Backnee Horn
Состав:
Rudi J. - Drums, Vocal
Zohar Cohen - Mellotron MkII & M400
Shimon Afriat - Bass, Synthesizer
Yevgeny Kushnir - Guitars

Лог создания рипа

Exact Audio Copy V1.0 beta 3 from 29. August 2011
EAC extraction logfile from 14. June 2014, 20:45
Backnee Horn / Backnee Horn
Used drive : HL-DT-STDVD-RAM GH22NP20 Adapter: 0 ID: 0
Read mode : SecureUtilize accurate stream : YesDefeat audio cache : YesMake use of C2 pointers : No
Read offset correction : 102Overread into Lead-In and Lead-Out : NoFill up missing offset samples with silence : YesDelete leading and trailing silent blocks : NoNull samples used in CRC calculations : YesUsed interface : Native Win32 interface for Win NT & 2000Gap handling : Appended to previous track
Used output format : User Defined EncoderSelected bitrate : 1024 kBit/sQuality : HighAdd ID3 tag : NoCommand line compressor : C:\Program Files\Exact Audio Copy\Flac\flac.exeAdditional command line options : -V -8 -T "Genre=%genre%" -T "Artist=%artist%" -T "Title=%title%" -T "Album=%albumtitle%" -T "Date=%year%" -T "Tracknumber=%tracknr%" -T "Comment=%comment%" %source%
TOC of the extracted CD
Track | Start | Length | Start sector | End sector --------------------------------------------------------- 1 | 0:00.00 | 3:25.32 | 0 | 15406 2 | 3:25.32 | 7:29.65 | 15407 | 49146 3 | 10:55.22 | 8:03.21 | 49147 | 85392 4 | 18:58.43 | 14:38.47 | 85393 | 151289 5 | 33:37.15 | 6:52.41 | 151290 | 182230 6 | 40:29.56 | 10:07.69 | 182231 | 227824 7 | 50:37.50 | 6:16.45 | 227825 | 256069 8 | 56:54.20 | 6:59.70 | 256070 | 287564
Track 1
Filename D:\music\Musicgate's rips\Backnee Horn - Backnee Horn (2009)\01 - Zooming Glooming.wav
Pre-gap length 0:00:02.00
Peak level 100.0 % Extraction speed 1.5 X Track quality 100.0 % Test CRC 4CC882C5 Copy CRC 4CC882C5 Track not present in AccurateRip database Copy OK
Track 2
Filename D:\music\Musicgate's rips\Backnee Horn - Backnee Horn (2009)\02 - Outleting Storming Particles.wav
Peak level 100.0 % Extraction speed 1.7 X Track quality 99.9 % Test CRC 5D9F1D17 Copy CRC 5D9F1D17 Track not present in AccurateRip database Copy OK
Track 3
Filename D:\music\Musicgate's rips\Backnee Horn - Backnee Horn (2009)\03 - Far Away But Close.wav
Peak level 100.0 % Extraction speed 2.2 X Track quality 100.0 % Test CRC 6E12F24E Copy CRC 6E12F24E Track not present in AccurateRip database Copy OK
Track 4
Filename D:\music\Musicgate's rips\Backnee Horn - Backnee Horn (2009)\04 - Around the Karmal Line.wav
Peak level 99.9 % Extraction speed 2.7 X Track quality 100.0 % Test CRC 6C479D9F Copy CRC 6C479D9F Track not present in AccurateRip database Copy OK
Track 5
Filename D:\music\Musicgate's rips\Backnee Horn - Backnee Horn (2009)\05 - Multiple Streaming Encounter.wav
Peak level 100.0 % Extraction speed 2.8 X Track quality 100.0 % Test CRC 8FC857CB Copy CRC 8FC857CB Track not present in AccurateRip database Copy OK
Track 6
Filename D:\music\Musicgate's rips\Backnee Horn - Backnee Horn (2009)\06 - Exhale Inside a Shell.wav
Peak level 100.0 % Extraction speed 3.1 X Track quality 100.0 % Test CRC 3E438678 Copy CRC 3E438678 Track not present in AccurateRip database Copy OK
Track 7
Filename D:\music\Musicgate's rips\Backnee Horn - Backnee Horn (2009)\07 - Flaming Inside Gaming.wav
Peak level 100.0 % Extraction speed 3.2 X Track quality 100.0 % Test CRC 58051DA7 Copy CRC 58051DA7 Track not present in AccurateRip database Copy OK
Track 8
Filename D:\music\Musicgate's rips\Backnee Horn - Backnee Horn (2009)\08 - Malachite Stroke.wav
Peak level 100.0 % Extraction speed 3.4 X Track quality 100.0 % Test CRC 1E57B506 Copy CRC 1E57B506 Track not present in AccurateRip database Copy OK
None of the tracks are present in the AccurateRip database
No errors occurred
End of status report
==== Log checksum 519CD0943BFB1DCB97627883D1772B070F11E484BFECA8774A8059007234C018 ====

Содержание индексной карты (.CUE):

REM GENRE "Psychedelic Rock"REM DATE 2008REM DISCID 560EFA08REM COMMENT "ExactAudioCopy v1.0b3"CATALOG 0000000000000PERFORMER "Backnee Horn"TITLE "Backnee Horn"FILE "01 - Zooming Glooming.wav" WAVE TRACK 01 AUDIO TITLE "Zooming Glooming" PERFORMER "Backnee Horn" ISRC LITFN0001930 INDEX 01 00:00:00FILE "02 - Outleting Storming Particles.wav" WAVE TRACK 02 AUDIO TITLE "Outleting Storming Particles" PERFORMER "Backnee Horn" ISRC LITFN0001930 INDEX 01 00:00:00FILE "03 - Far Away But Close.wav" WAVE TRACK 03 AUDIO TITLE "Far Away But Close" PERFORMER "Backnee Horn" ISRC LITFN0001930 INDEX 01 00:00:00FILE "04 - Around the Karmal Line.wav" WAVE TRACK 04 AUDIO TITLE "Around the Karmal Line" PERFORMER "Backnee Horn" ISRC LITFN0001930 INDEX 01 00:00:00FILE "05 - Multiple Streaming Encounter.wav" WAVE TRACK 05 AUDIO TITLE "Multiple Streaming Encounter" PERFORMER "Backnee Horn" ISRC LITFN0001930 INDEX 01 00:00:00FILE "06 - Exhale Inside a Shell.wav" WAVE TRACK 06 AUDIO TITLE "Exhale Inside a Shell" PERFORMER "Backnee Horn" ISRC LITFN0001930 INDEX 01 00:00:00FILE "07 - Flaming Inside Gaming.wav" WAVE TRACK 07 AUDIO TITLE "Flaming Inside Gaming" PERFORMER "Backnee Horn" ISRC LITFN0001930 INDEX 01 00:00:00FILE "08 - Malachite Stroke.wav" WAVE TRACK 08 AUDIO TITLE "Malachite Stroke" PERFORMER "Backnee Horn" ISRC LITFN0001930 INDEX 01 00:00:00

Лог проверки качества

2011 - Backnee Horn II (2CD) Третий альбом, в Германии готовится двухдисковое издание на виниле, которое можно будет купить или на CDBABY, или на сайте тель-авивского магазина "Kzat Aheret", или прямо в магазине. Этот альбом уходит еще дальше по пути свободной импровизации и авангарда
Жанр: kraut, avant, psych
Год издания: 2011
Страна - производитель диска: Israel
Издатель (лейбл): Head-Lee
Номер по каталогу: No number
Тип: Studio, jam
Продолжительность: 51:42 + 44:25
Источник (релизер): Моя коллекция, мой рип
Трэклист:
Disc A 1. Halopedal - 12:00
2. Fly Lie - 08:23
3. Circuit Morph - 13:50
4. Sun of no Son - 17:30
Disc B 5. Rhino - Diaperism - 7:40
6. Dotted Hangar - 14:32
7. Ex - Idioms - 22:23
Written, composed & produced by BACKNEE HORN
Состав:
Alex Furman - Keyboards, Effects (Sumo Elevator)
Rogi Niniart - Synths, 3-stringed Bass
Rudi J - Drums, Vocals
Yevgeny Kushnir - Guitars (Sumo Elevator)
Zohar Cohen - Mellotrons (Lemmus Lemmus)

CD1Лог создания рипа

Exact Audio Copy V0.99 prebeta 5 from 4. May 2009
EAC extraction logfile from 2. June 2011, 8:12
Backnee Horn / Backnee Horn II (CD1)
Used drive : HL-DT-STDVD-RAM GH22NP20 Adapter: 0 ID: 0
Read mode : SecureUtilize accurate stream : YesDefeat audio cache : YesMake use of C2 pointers : No
Read offset correction : 102Overread into Lead-In and Lead-Out : NoFill up missing offset samples with silence : YesDelete leading and trailing silent blocks : NoNull samples used in CRC calculations : YesUsed interface : Native Win32 interface for Win NT & 2000Gap handling : Appended to previous track
Used output format : User Defined EncoderSelected bitrate : 1024 kBit/sQuality : HighAdd ID3 tag : NoCommand line compressor : C:\Program Files\Exact Audio Copy\Flac\flac.exeAdditional command line options : -8 -V -T "ARTIST=%a" -T "TITLE=%t" -T "ALBUM=%g" -T "DATE=%y" -T "TRACKNUMBER=%n" -T "GENRE=%m" -T "COMMENT=EAC FLAC -8" %s
TOC of the extracted CD
Track | Start | Length | Start sector | End sector --------------------------------------------------------- 1 | 0:00.00 | 12:01.00 | 0 | 54074 2 | 12:01.00 | 13:50.52 | 54075 | 116376 3 | 25:51.52 | 8:23.21 | 116377 | 154122 4 | 34:14.73 | 17:28.15 | 154123 | 232737
Track 1
Filename D:\music\Musicgate's rips\Backnee Horn - Backnee Horn II - 2010 (Self released)\CD1\01 - Halopedal.wav
Pre-gap length 0:00:02.00
Peak level 100.0 % Track quality 100.0 % Test CRC 67E7A4D4 Copy CRC 67E7A4D4 Track not present in AccurateRip database Copy OK
Track 2
Filename D:\music\Musicgate's rips\Backnee Horn - Backnee Horn II - 2010 (Self released)\CD1\02 - Fly Lie.wav
Peak level 100.0 % Track quality 100.0 % Test CRC C1411A94 Copy CRC C1411A94 Track not present in AccurateRip database Copy OK
Track 3
Filename D:\music\Musicgate's rips\Backnee Horn - Backnee Horn II - 2010 (Self released)\CD1\03 - Circuit Morph.wav
Peak level 100.0 % Track quality 100.0 % Test CRC EBD8187D Copy CRC EBD8187D Track not present in AccurateRip database Copy OK
Track 4
Filename D:\music\Musicgate's rips\Backnee Horn - Backnee Horn II - 2010 (Self released)\CD1\04 - Sun of no Son.wav
Peak level 100.0 % Track quality 100.0 % Test CRC 795ABD16 Copy CRC 795ABD16 Track not present in AccurateRip database Copy OK
None of the tracks are present in the AccurateRip database
No errors occurred
End of status report

Содержание индексной карты (.CUE):

REM GENRE "Israeli prog"REM DATE 2010REM DISCID 290C1F04REM COMMENT "ExactAudioCopy v0.99pb5"PERFORMER "Backnee Horn"TITLE "Backnee Horn II (CD1)"FILE "01 - Halopedal.wav" WAVE TRACK 01 AUDIO TITLE "Halopedal" PERFORMER "Backnee Horn" INDEX 01 00:00:00FILE "02 - Fly Lie.wav" WAVE TRACK 02 AUDIO TITLE "Fly Lie" PERFORMER "Backnee Horn" INDEX 01 00:00:00FILE "03 - Circuit Morph.wav" WAVE TRACK 03 AUDIO TITLE "Circuit Morph" PERFORMER "Backnee Horn" INDEX 01 00:00:00FILE "04 - Sun of no Son.wav" WAVE TRACK 04 AUDIO TITLE "Sun of no Son" PERFORMER "Backnee Horn" INDEX 01 00:00:00

CD2Лог создания рипа

Exact Audio Copy V0.99 prebeta 5 from 4. May 2009
EAC extraction logfile from 2. June 2011, 12:27
Backnee Horn / Backnee Horn II
Used drive : HL-DT-STDVD-RAM GH22NP20 Adapter: 0 ID: 0
Read mode : SecureUtilize accurate stream : YesDefeat audio cache : YesMake use of C2 pointers : No
Read offset correction : 102Overread into Lead-In and Lead-Out : NoFill up missing offset samples with silence : YesDelete leading and trailing silent blocks : NoNull samples used in CRC calculations : YesUsed interface : Native Win32 interface for Win NT & 2000Gap handling : Appended to previous track
Used output format : User Defined EncoderSelected bitrate : 1024 kBit/sQuality : HighAdd ID3 tag : NoCommand line compressor : C:\Program Files\Exact Audio Copy\Flac\flac.exeAdditional command line options : -8 -V -T "ARTIST=%a" -T "TITLE=%t" -T "ALBUM=%g" -T "DATE=%y" -T "TRACKNUMBER=%n" -T "GENRE=%m" -T "COMMENT=EAC FLAC -8" %s
TOC of the extracted CD
Track | Start | Length | Start sector | End sector --------------------------------------------------------- 1 | 0:00.00 | 7:39.74 | 0 | 34498 2 | 7:39.74 | 14:31.67 | 34499 | 99890 3 | 22:11.66 | 22:15.07 | 99891 | 200022
Track 1
Filename D:\music\Musicgate's rips\Backnee Horn - Backnee Horn II - 2010 (Self released)\CD2\01 - Rhino - Diaperism.wav
Pre-gap length 0:00:02.00
Peak level 99.9 % Track quality 100.0 % Test CRC C8A196B9 Copy CRC C8A196B9 Track not present in AccurateRip database Copy OK
Track 2
Filename D:\music\Musicgate's rips\Backnee Horn - Backnee Horn II - 2010 (Self released)\CD2\02 - Dotted Hangar.wav
Peak level 100.0 % Track quality 100.0 % Test CRC CEE51F59 Copy CRC CEE51F59 Track not present in AccurateRip database Copy OK
Track 3
Filename D:\music\Musicgate's rips\Backnee Horn - Backnee Horn II - 2010 (Self released)\CD2\03 - Ex - Idioms.wav
Peak level 70.7 % Track quality 100.0 % Test CRC B9EB7667 Copy CRC B9EB7667 Track not present in AccurateRip database Copy OK
None of the tracks are present in the AccurateRip database
No errors occurred
End of status report

Содержание индексной карты (.CUE):

REM GENRE "Israeli prog"REM DATE 2010REM DISCID 170A6A03REM COMMENT "ExactAudioCopy v0.99pb5"PERFORMER "Backnee Horn"TITLE "Backnee Horn II (CD2)"FILE "01 - Rhino - Diaperism.wav" WAVE TRACK 01 AUDIO TITLE "Rhino - Diaperism" PERFORMER "Backnee Horn" INDEX 01 00:00:00FILE "02 - Dotted Hangar.wav" WAVE TRACK 02 AUDIO TITLE "Dotted Hangar" PERFORMER "Backnee Horn" INDEX 01 00:00:00FILE "03 - Ex - Idioms.wav" WAVE TRACK 03 AUDIO TITLE "Ex - Idioms" PERFORMER "Backnee Horn" INDEX 01 00:00:00

Лог проверки качества


[ru-zerkalo.org]_t_2169415
Torrent: Registered ·  [ 2019-12-21 04:27 ] ·  2f093315c15e1ef15df1a35ad9150f6935ac26ae

22 KB

Status: checked
Completed: 0 times
Size: 915 MB
Rating: 
(Votes: 0)
Say thanks: 0  Thanks
 
Похожие темы
[Profile] [PM]
Display posts from previous:    
Reply to topic

The time now is: Today 22:27

All times are GMT + 7 Hours



You cannot post new topics in this forum
You cannot reply to topics in this forum
You cannot edit your posts in this forum
You cannot delete your posts in this forum
You cannot vote in polls in this forum
You cannot attach files in this forum
You can download files in this forum