Register · 
Username: Password:
 ·  Forgot password?

[TR24][OF] Zac Leaser - The Arising - 2019 (Technical Melodic Death Metal)

Reply to topic
DL-List and Torrent activity [Update пиров]
Size:  587 MB   |    Registered:  1 month 27 days   |    Completed:  1 time

Seeder not seen: 19 hours

 
   
 
 
 
Author Message

ANTON1404 ®

Gender:

Longevity: 6 years 4 months

Posts: 19017

Post 21-Dec-2019 07:36

[Quote]

Zac Leaser - The Arising- Формат записи/Источник записи: [TR24][OF]
Наличие водяных знаков: Нет
Год издания/переиздания диска: 2019
Жанр: Technical Melodic Death Metal
Продолжительность: 00:47:38
Наличие сканов в содержимом раздачи: Только обложка альбома
Треклист:
1.Agita 05:24
2.Charmer 05:57
3.Garnet 04:58
4.Haze 04:43
5.Jaded 05:07
6.Morose 04:24
7.Tides 06:23
8.Yonder 03:07
9.Zymotic 07:29
Контейнер: FLAC (*.flac)
Тип рипа: tracks
Разрядность: 24/44,1
Формат: WAV (flac.ape.wv)
Количество каналов: 2.0

Лог проверки качества

foobar2000 1.4.1 / Dynamic Range Meter 1.1.1log date: 2019-12-20 22:11:09
--------------------------------------------------------------------------------Analyzed: Zac Leaser / The Arising--------------------------------------------------------------------------------
DR Peak RMS Duration Track--------------------------------------------------------------------------------DR5 -0.20 dB -6.73 dB 5:25 01-AgitaDR5 -0.20 dB -6.59 dB 5:58 02-CharmerDR5 -0.20 dB -6.98 dB 4:59 03-GarnetDR5 -0.20 dB -6.94 dB 4:43 04-HazeDR5 -0.20 dB -6.68 dB 5:07 05-JadedDR5 -0.20 dB -6.04 dB 4:25 06-MoroseDR5 -0.14 dB -5.87 dB 6:24 07-TidesDR5 -0.20 dB -5.76 dB 3:07 08-YonderDR6 -0.20 dB -7.44 dB 7:30 09-Zymotic--------------------------------------------------------------------------------
Number of tracks: 9Official DR value: DR5
Samplerate: 44100 HzChannels: 2Bits per sample: 24Bitrate: 1648 kbpsCodec: FLAC================================================================================
Источник (релизер): Bandcamp-Спасибо за материал [url=profile.php?mode=viewprofile&u=305450]RounDeviL[/url]-[url=tracker.php?rid=12443263]МОИ РАЗДАЧИ[/url]
[url=tracker.php?rid=305450]РАЗДАЧИ RounDeviL[/url]
[ru-zerkalo.org]_t_5823500
Torrent: Registered ·  [ 2019-12-21 07:36 ] ·  caaa4cd02348b240c920007d527e641a26b5bf77

13 KB

Status: checked
Completed: 1 times
Size: 587 MB
Rating: 
(Votes: 0)
Say thanks: 0  Thanks
 
Похожие темы
[Profile] [PM]
Display posts from previous:    
Reply to topic

The time now is: Today 09:11

All times are GMT + 7 Hours



You cannot post new topics in this forum
You cannot reply to topics in this forum
You cannot edit your posts in this forum
You cannot delete your posts in this forum
You cannot vote in polls in this forum
You cannot attach files in this forum
You can download files in this forum