Register · 
Username: Password:
 ·  Forgot password?

Дилер / Pusher (Николас Виндинг Рефн / Nicolas Winding Refn) [1996, Дания, Триллер, криминал, BDRip] Dub (iTunes) + MVO + AVO (Немахов) + Original Dan + Sub Rus, Eng

Reply to topic
DL-List and Torrent activity [Update пиров]
Size:  2.82 GB   |    Registered:  1 month 3 days   |    Completed:  1 time

Seeder not seen: 19 days

 
   
 
 
 
Author Message

FragoMan ®

Gender:

Longevity: 6 years 3 months

Posts: 24922

Post 21-Dec-2019 10:36

[Quote]

Дилер / Pusher«You don't have a chance. Seize it!»--
Страна: Дания
Жанр: Триллер, Криминал
Год выхода: 1996
Продолжительность: 01:49:43
Перевод #1: Профессиональный (дублированный) | iTunes |
Перевод #2: Профессиональный (многоголосый, закадровый)
Перевод #3: Авторский (одноголосый, закадровый) | Ю.Немахов |
Оригинальная аудиодорожка: Английский
Субтитры: Русские, Английские.
Режиссер: Николас Виндинг Рефн / Nicolas Winding Refn
В ролях: Ким Бодния, Златко Бурич, Лаура Драсбек, Славко Лабович, Мадс Миккельсен, Петер Андерссон, Ваня Байичич, Лизабет Расмуссен, Левино Йенсен, Томас Бо Ларсен
О фильме: У Франка, профессионального пушера (так называют мелких уличных торговцев наркотиками) крупные неприятности. Он должен 50 тысяч своим поставщикам-югославам, а вдобавок к этому во время продажи героина приезжим шведам налетела полиция, и весь товар, взятый в долг, пришлось выбросить в пруд.
Друг Тонни, с кем они вместе работали, во всем признался полиции. Но товар выброшен, улик нет, и Франка выпустили. Теперь его долг поставщику Мило — 180 тысяч.
Франк любит проститутку Вик, красивую девушку, но безнадежную наркоманку. Кроме неё, пожалуй, ничего хорошего в жизни Франка и нет. И денег нет, а Мило требует вернуть долг. Не сможет — вышибала Мило Радован вырежет ему ножом коленные чашечки. Франк покупает пистолет. Поставщики тем временем узнают, что он дерзнул открыть собственное дело. Такое не прощается.


HRIME
Сэмпл: скачать
Формат: AVI
Качество: BDRip ( BDRemux - oleg-k)
Кодек: XviD, build 67 codec
Видео: 704 x 400; 24.000 fps; 1996 kbps; 0.295 bit/pixel
Аудио #1: RUS AC3 Dolby Digital; 384 Kbps; 6 channels; 48 KHz
Аудио #2: DAN AC3 Dolby Digital; 448 Kbps; 6 channels; 48 KHz
Аудио #3: RUS AC3 Dolby Digital; 384 Kbps; 6 channels; 48 KHz // MVO / отдельно
Аудио #4: RUS AC3 Dolby Digital; 384 Kbps; 6 channels; 48 KHz // AVO.Nemahov / отдельно--

Скриншоты


Media Info

General
Complete name                            : Diler.1996.DUAL.BDRip.XviD.AC3.-.avi
Format                                   : AVI
Format/Info                              : Audio Video Interleave
Format profile                           : OpenDML
File size                                : 2.18 GiB
Duration                                 : 1h 49mn
Overall bit rate                         : 2 845 Kbps
Movie name                               : Pusher.1996.Nicolas.Winding.Refn
Director                                 : HRIME
Writing application                      : VirtualDubMod 1.5.10.2 (build 2540/release)
Original source form/Name                : Movie
Copyright                                :
Comment                                  : 28.11.2019
Video
ID                                       : 0
Format                                   : MPEG-4 Visual
Format profile                           : Advanced Simple@L5
Format settings, BVOP                    : 1
Format settings, QPel                    : No
Format settings, GMC                     : No warppoints
Format settings, Matrix                  : Custom
Codec ID                                 : XVID
Codec ID/Hint                            : XviD
Duration                                 : 1h 49mn
Bit rate                                 : 1 996 Kbps
Width                                    : 704 pixels
Height                                   : 400 pixels
Display aspect ratio                     : 16:9
Frame rate                               : 24.000 fps
Color space                              : YUV
Chroma subsampling                       : 4:2:0
Bit depth                                : 8 bits
Scan type                                : Progressive
Compression mode                         : Lossy
Bits/(Pixel*Frame)                       : 0.295
Stream size                              : 1.53 GiB (70%)
Writing library                          : XviD 67
Audio #1
ID                                       : 1
Format                                   : AC-3
Format/Info                              : Audio Coding 3
Mode extension                           : CM (complete main)
Codec ID                                 : 2000
Duration                                 : 1h 49mn
Bit rate mode                            : Constant
Bit rate                                 : 384 Kbps
Channel(s)                               : 6 channels
Channel positions                        : Front: L C R, Side: L R, LFE
Sampling rate                            : 48.0 KHz
Bit depth                                : 16 bits
Compression mode                         : Lossy
Stream size                              : 301 MiB (13%)
Alignment                                : Split accross interleaves
Interleave, duration                     : 42 ms (1.00 video frame)
Interleave, preload duration             : 500 ms
Audio #2
ID                                       : 2
Format                                   : AC-3
Format/Info                              : Audio Coding 3
Mode extension                           : CM (complete main)
Codec ID                                 : 2000
Duration                                 : 1h 49mn
Bit rate mode                            : Constant
Bit rate                                 : 448 Kbps
Channel(s)                               : 6 channels
Channel positions                        : Front: L C R, Side: L R, LFE
Sampling rate                            : 48.0 KHz
Bit depth                                : 16 bits
Compression mode                         : Lossy
Stream size                              : 352 MiB (16%)
Alignment                                : Split accross interleaves
Interleave, duration                     : 42 ms (1.00 video frame)
Interleave, preload duration             : 500 ms
[ru-zerkalo.org]_t_5823590
Torrent: Registered ·  [ 2019-12-21 10:36 ] ·  8c5b8d80f84f810c33147018fead3b7c6256e560

15 KB

Status: checked
Completed: 1 times
Size: 2.82 GB
Rating: 
(Votes: 0)
Say thanks: 0  Thanks
 
Похожие темы
[Profile] [PM]
Display posts from previous:    
Reply to topic

The time now is: Today 22:28

All times are GMT + 7 Hours



You cannot post new topics in this forum
You cannot reply to topics in this forum
You cannot edit your posts in this forum
You cannot delete your posts in this forum
You cannot vote in polls in this forum
You cannot attach files in this forum
You can download files in this forum