Register · 
Username: Password:
 ·  Forgot password?

Дилер 3 / Pusher III (Николас Виндинг Рефн / Nicolas Winding Refn) [2005, Дания, Боевик, триллер, драма, комедия, криминал, BDRip] Dub (iTunes) + MVO (Кинопоказ) + AVO (Немахов) + Original Dan + Sub Rus, Eng

Reply to topic
DL-List and Torrent activity [Update пиров]
Size:  2.5 GB   |    Registered:  28 days   |    Completed:  0 times

Seeder not seen: Never

 
   
 
 
 
Author Message

temkin_88 ®

Gender:

Longevity: 6 years 3 months

Posts: 17133

Post 21-Dec-2019 10:36

[Quote]

Дилер 3 / Pusher III«I'm the Angel of Death»--
Страна: Дания
Жанр: Боевик, Триллер, Драма, Комедия, Криминал
Год выхода: 2005
Продолжительность: 01:43:27
Перевод #1: Профессиональный (дублированный) | iTunes |
Перевод #2: Профессиональный (многоголосый, закадровый) | Кинопоказ |
Перевод #3: Авторский (одноголосый, закадровый) | Ю.Немахов |
Оригинальная аудиодорожка: Английский
Субтитры: Русские (2 вида), Английские.
Режиссер: Николас Виндинг Рефн / Nicolas Winding Refn
В ролях: Златко Бурич, Маринела Декич, Славко Лабович, Рамадан Хусейни, Ильяс Аджак, Куйтим Локи, Ваня Байичич, Левино Йенсен, Марек Магерецки,Свен Эрик Эскеланд Ларсен
О фильме: Заключение известной датской трилогии о наркоторговцах. В этот раз Мило получил не то, что ожидал, и к тому же его кинули партнеры. Посмотрим, как он выкрутится из этой ситуации.


HRIME
Сэмпл: скачать
Формат: AVI
Качество: BDRip ( BDRemux - oleg-k)
Кодек: XviD, build 67 codec
Видео: 704 x 400; 25.000 fps; 1968 kbps; 0.280 bit/pixel
Аудио #1: RUS AC3 Dolby Digital; 384 Kbps; 6 channels; 48 KHz
Аудио #2: RUS AC3 Dolby Digital; 192 Kbps; 2 channels; 48 KHz
Аудио #3: DAN AC3 Dolby Digital; 448 Kbps; 6 channels; 48 KHz
Аудио #4: RUS AC3 Dolby Digital; 448 Kbps; 6 channels; 48 KHz // AVO.Nemahov / отдельно--

Скриншоты


Media Info

General
Complete name                            : Diler.3.2005.TRIPLE.BDRip.XviD.AC3.-.avi
Format                                   : AVI
Format/Info                              : Audio Video Interleave
Format profile                           : OpenDML
File size                                : 2.18 GiB
Duration                                 : 1h 43mn
Overall bit rate                         : 3 016 Kbps
Movie name                               : Pusher.III.2005.Nicolas.Winding.Refn
Director                                 : HRIME
Writing application                      : VirtualDubMod 1.5.10.2 (build 2540/release)
Original source form/Name                : Movie
Copyright                                :
Comment                                  : 01.12.2019
Video
ID                                       : 0
Format                                   : MPEG-4 Visual
Format profile                           : Advanced Simple@L5
Format settings, BVOP                    : 1
Format settings, QPel                    : No
Format settings, GMC                     : No warppoints
Format settings, Matrix                  : Custom
Codec ID                                 : XVID
Codec ID/Hint                            : XviD
Duration                                 : 1h 43mn
Bit rate                                 : 1 968 Kbps
Width                                    : 704 pixels
Height                                   : 400 pixels
Display aspect ratio                     : 16:9
Frame rate                               : 25.000 fps
Color space                              : YUV
Chroma subsampling                       : 4:2:0
Bit depth                                : 8 bits
Scan type                                : Progressive
Compression mode                         : Lossy
Bits/(Pixel*Frame)                       : 0.280
Stream size                              : 1.42 GiB (65%)
Writing library                          : XviD 67
Audio #1
ID                                       : 1
Format                                   : AC-3
Format/Info                              : Audio Coding 3
Mode extension                           : CM (complete main)
Codec ID                                 : 2000
Duration                                 : 1h 43mn
Bit rate mode                            : Constant
Bit rate                                 : 384 Kbps
Channel(s)                               : 6 channels
Channel positions                        : Front: L C R, Side: L R, LFE
Sampling rate                            : 48.0 KHz
Bit depth                                : 16 bits
Compression mode                         : Lossy
Stream size                              : 284 MiB (13%)
Alignment                                : Split accross interleaves
Interleave, duration                     : 40 ms (1.00 video frame)
Interleave, preload duration             : 500 ms
Audio #2
ID                                       : 2
Format                                   : AC-3
Format/Info                              : Audio Coding 3
Mode extension                           : CM (complete main)
Codec ID                                 : 2000
Duration                                 : 1h 43mn
Bit rate mode                            : Constant
Bit rate                                 : 192 Kbps
Channel(s)                               : 2 channels
Channel positions                        : Front: L R
Sampling rate                            : 48.0 KHz
Bit depth                                : 16 bits
Compression mode                         : Lossy
Stream size                              : 142 MiB (6%)
Alignment                                : Split accross interleaves
Interleave, duration                     : 40 ms (1.00 video frame)
Interleave, preload duration             : 500 ms
Audio #3
ID                                       : 3
Format                                   : AC-3
Format/Info                              : Audio Coding 3
Mode extension                           : CM (complete main)
Codec ID                                 : 2000
Duration                                 : 1h 43mn
Bit rate mode                            : Constant
Bit rate                                 : 448 Kbps
Channel(s)                               : 6 channels
Channel positions                        : Front: L C R, Side: L R, LFE
Sampling rate                            : 48.0 KHz
Bit depth                                : 16 bits
Compression mode                         : Lossy
Stream size                              : 331 MiB (15%)
Alignment                                : Split accross interleaves
Interleave, duration                     : 40 ms (1.00 video frame)
Interleave, preload duration             : 500 ms
[ru-zerkalo.org]_t_5823593
Torrent: Registered ·  [ 2019-12-21 10:36 ] ·  13afd0fe76d6a5a7f2b12350a698f2f8fbca3d13

14 KB

Status: checked
Completed: 0 times
Size: 2.5 GB
Rating: 
(Votes: 0)
Say thanks: 0  Thanks
 
Похожие темы
[Profile] [PM]
Display posts from previous:    
Reply to topic

The time now is: Today 02:14

All times are GMT + 7 Hours



You cannot post new topics in this forum
You cannot reply to topics in this forum
You cannot edit your posts in this forum
You cannot delete your posts in this forum
You cannot vote in polls in this forum
You cannot attach files in this forum
You can download files in this forum